[neoHEVC] Sleepy Princess in the Demon Castle [Season 1] [BD 1080p x265 HEVC AAC] [Dual Audio] Maoujou de Oyasumi

Category:
Date:
2021-05-14 10:28 UTC
Submitter:
Seeders:
28
Information:
Leechers:
1
File size:
4.1 GiB
Completed:
856
Info hash:
1e2a20cef7779badf2f5a94644931e59648bb196
![](https://i.imgur.com/RBlGp48.png) *Join **[Discord](https://discord.gg/47Q7FdB54e)** for Current Projects, Encode-Requests and Seed-Request in case of no available seeds.* **Sleepy Princess in the Demon Castle / Maoujou de Oyasumi [Season 1]** *with `Dual Audio (Jpn/Eng)` and `Eng Subs` in `BD 1080p HEVC`* Reencode of [ReinForce] (x264 AVC FLAC) to (x265 HEVC AAC) with added English audio tracks from [Golumpa] and English subtitles from [Erai-Raws]. *Side Note: I created additional [Signs & Songs] subtitle tracks from the [Dialog] subtitle tracks to go with the added English audio tracks, resampled the script, improved some signs here and there (mainly in episode 1) and created chapters. I also tracked down the OP and ED lyrics and created simply styled OPED.* ![](https://i.imgur.com/4iegWLL.png) **[Trailer](https://www.youtube.com/watch?v=l_gsHjZ0qko)** ![](https://i.imgur.com/3UxGuWB.png) ![](https://i.imgur.com/ZCtSawZ.png) **[MyAnimeList](https://myanimelist.net/anime/40397/Maoujou_de_Oyasumi)** --- **Synopsis** The Demon Lord Tasogare's castle is a dark and frightening place, filled to the brim with various monsters. Any soul unfortunate enough to be imprisoned here is sure to be terrified by the horrors within. However, the human princess Aurora Suya Rhys "Syalis" Kaymin is a different case. Rather indifferent to her situation, Syalis worries about one thing and one thing only—sleep. Ever since the demon lord kidnapped her from her kingdom, she has not had a single good night's rest. To alleviate her dozen dozing issues, the princess makes do with what she can find in the castle. Whether it be the fur of fluffy demonic teddy bears or the silky, blanket-like bodies of ghost shrouds, everything is but a means to ensure a peaceful slumber. With so many potential materials to craft items that can help her sleep at her disposal, nothing will stop the sleepy princess—not even death. ![](https://i.imgur.com/WhD2Ite.gif) --- **Language Options** I included two simple scripts that you can apply to these files to do the following (Windows only): 1. Change [Default Tracks]: Switches default tracks to *A:Japanese S:Dialog* 2. Make [Single Audio]: Throws out *English audio* and *Signs&Songs subtitles* tracks To apply these put all the video files into the *Language Options* folder and run the .bat file. <1> Changes existing files, <2> creates new ones in the *output* folder. --- **Comparison** *Open links, toggle with mouseclick and check title.* [![](https://i.imgur.com/4pmTK9r.png)](https://slow.pics/c/6X6aXcoB) [![](https://i.imgur.com/YG0EO45.png)](https://slow.pics/c/wNyQoge9) [![](https://i.imgur.com/BqpXcyo.png)](https://slow.pics/c/uiQBhMR0) --- **Source** ?️ Video and JPN Audio: **[[ReinForce]](https://nyaa.si/view/1385373)** ?️ Eng Audio: **[[Golumpa]](https://nyaa.si/view/1347011)** ?️ Subtitles: **[[FFA]](https://nyaa.si/view/1286862)** ? *Subtitles Info: [Erai-Raws] - Format `ASS`* --- **Media Info** ? [Full Mediainfo incl. Encoder Settings](https://pastebin.com/7WjX1GWX) ``` General Unique ID : 243197458381905022298014749480718675986 (0xB6F62072AA63A6A8D94401610403B012) Complete name : Sleepy Princess in the Demon Castle - S01E01.mkv Format : Matroska Format version : Version 4 File size : 352 MiB Duration : 23 min 51 s Overall bit rate : 2 061 kb/s Movie name : Sleepy Princess in the Demon Castle - S01E01 Encoded date : UTC 2021-05-14 10:23:11 Writing application : mkvmerge v47.0.0 ('Black Flag') 64-bit Writing library : libebml v1.3.10 + libmatroska v1.5.2 / Lavf58.29.100 Attachments : MADE Tommy Soft Regular PERSONAL USE.otf / MyriadPro-Bold.otf / MyriadPro-BoldIt.otf / MyriadPro-Semibold.otf / MyriadPro-SemiboldIt.otf / OpenSans-Bold.ttf / OpenSans-BoldItalic.ttf / OpenSans-ExtraBold.ttf / OpenSans-ExtraBoldItalic.ttf / OpenSans-Italic.ttf / OpenSans-Light.ttf / OpenSans-LightItalic.ttf / OpenSans-Regular.ttf / OpenSans-Semibold.ttf / OpenSans-SemiboldItalic.ttf Video ID : 1 Format : HEVC Format/Info : High Efficiency Video Coding Format profile : Main 10@L4.1@High Codec ID : V_MPEGH/ISO/HEVC Duration : 23 min 51 s Bit rate : 1 666 kb/s Width : 1 920 pixels Height : 1 080 pixels Display aspect ratio : 16:9 Frame rate mode : Constant Frame rate : 23.976 (24000/1001) FPS Color space : YUV Chroma subsampling : 4:2:0 Bit depth : 10 bits Bits/(Pixel*Frame) : 0.034 Stream size : 284 MiB (81%) Writing library : x265 3.2.1+1-b5c86a64bbbe:[Windows][GCC 9.2.0][64 bit] 10bit Encoding settings : <Check Link Above> Default : Yes Forced : No Color range : Limited Color primaries : BT.709 Transfer characteristics : BT.709 Matrix coefficients : BT.709 Audio #1 ID : 2 Format : AAC LC Format/Info : Advanced Audio Codec Low Complexity Codec ID : A_AAC-2 Duration : 23 min 50 s Bit rate : 253 kb/s Channel(s) : 2 channels Channel layout : L R Sampling rate : 48.0 kHz Frame rate : 46.875 FPS (1024 SPF) Compression mode : Lossy Delay relative to video : 19 ms Stream size : 43.2 MiB (12%) Title : Stereo - ENG (AAC) Language : English Default : Yes Forced : No Audio #2 ID : 3 Format : AAC LC Format/Info : Advanced Audio Codec Low Complexity Codec ID : A_AAC-2 Duration : 23 min 51 s Bit rate : 123 kb/s Channel(s) : 2 channels Channel layout : L R Sampling rate : 48.0 kHz Frame rate : 46.875 FPS (1024 SPF) Compression mode : Lossy Stream size : 21.1 MiB (6%) Title : Stereo - JPN (AAC) Language : Japanese Default : No Forced : No Text #1 ID : 4 Format : ASS Codec ID : S_TEXT/ASS Codec ID/Info : Advanced Sub Station Alpha Duration : 22 min 56 s Bit rate : 53 b/s Count of elements : 134 Compression mode : Lossless Stream size : 8.99 KiB (0%) Title : Signs & Songs - ENG (ASS) Language : English Default : Yes Forced : No Text #2 ID : 5 Format : ASS Codec ID : S_TEXT/ASS Codec ID/Info : Advanced Sub Station Alpha Duration : 23 min 43 s Bit rate : 144 b/s Count of elements : 431 Compression mode : Lossless Stream size : 25.1 KiB (0%) Title : Dialog - ENG (ASS) Language : English Default : No Forced : No Menu 00:00:00.000 : en:Intro 00:04:44.034 : en:OP 00:06:13.957 : en:Chapter 1 00:08:54.659 : en:Chapter 2 00:13:41.988 : en:Chapter 3 00:21:59.026 : en:ED 00:23:28.991 : en:Preview ```

File list

  • [neoHEVC] Sleepy Princess in the Demon Castle [Season 1] [BD 1080p x265 HEVC AAC] [Dual Audio]
    • Language Options
      • 1. Change [Default Tracks].bat (283 Bytes)
      • 2. Make [Single Audio] Japanese.bat (124 Bytes)
      • mkvmerge.exe (9.6 MiB)
      • mkvpropedit.exe (5.1 MiB)
      • readme.txt (486 Bytes)
    • Sleepy Princess in the Demon Castle - S01E01.mkv (351.5 MiB)
    • Sleepy Princess in the Demon Castle - S01E02.mkv (323.1 MiB)
    • Sleepy Princess in the Demon Castle - S01E03.mkv (340.4 MiB)
    • Sleepy Princess in the Demon Castle - S01E04.mkv (329.8 MiB)
    • Sleepy Princess in the Demon Castle - S01E05.mkv (339.7 MiB)
    • Sleepy Princess in the Demon Castle - S01E06.mkv (303.6 MiB)
    • Sleepy Princess in the Demon Castle - S01E07.mkv (350.0 MiB)
    • Sleepy Princess in the Demon Castle - S01E08.mkv (307.9 MiB)
    • Sleepy Princess in the Demon Castle - S01E09.mkv (359.0 MiB)
    • Sleepy Princess in the Demon Castle - S01E10.mkv (395.4 MiB)
    • Sleepy Princess in the Demon Castle - S01E11.mkv (409.4 MiB)
    • Sleepy Princess in the Demon Castle - S01E12.mkv (378.2 MiB)
thank you @neoborn for the upload

neoborn (uploader)

User
![](https://i.imgur.com/7ZavSam.png)
Thank you for all the work on this, especially the subs. ♡‿♡
Thanks, the anime is amazing. Great subs make the experience more enjoyable

neoborn (uploader)

User
It's one of the funniest anime that I've seen recently =) Unfortuantely there are a couple untranslated signs and also some are simple white text at the top. I might work on these myself in the future and make a V2 since I enjoyed this show so much.
so when are you gonna work on the V2 so I could start downloading a proper dual audio release
Many thanks for all your HEVC dual audio encodes Neo! Much appreciated!