[NRN] One Piece - 973 [1080p][Multiple Subtitle]

Category:
Date:
2021-05-09 13:28 UTC
Submitter:
Seeders:
1
Information:
No information.
Leechers:
0
File size:
288.1 MiB
Completed:
11
Info hash:
49edb93601fcaaebf3980158d6206499bd4ae3c8
### I have a Carrier-grade NAT connection, meaning I don’t have a public IP. So, it makes seeding very difficult. If anyone with Public IP downloads this file then everyone can leech from him. So, don’t delete the torrent if you see your download is not starting. General Format : Matroska Format version : Version 4 File size : 288 MiB Duration : 23 min 50 s Overall bit rate : 1 689 kb/s Writing application : Lavf58.78.100 Writing library : Lavf58.78.100 ErrorDetectionType : Per level 1 Attachments : Arial_0.ttf / calibri.ttf / comic_0.ttf / georgia_0.ttf / impact_0.ttf / Tahoma_0.ttf / times_0.ttf / trebuc_0.ttf / verdana_0.ttf / AdobeArabic-Bold.otf Video ID : 1 Format : HEVC Format/Info : High Efficiency Video Coding Format profile : Main@L4@Main Codec ID : V_MPEGH/ISO/HEVC Duration : 23 min 50 s Bit rate : 7 991 kb/s Width : 1 920 pixels Height : 1 080 pixels Display aspect ratio : 16:9 Frame rate mode : Constant Frame rate : 23.976 (24000/1001) FPS Color space : YUV Chroma subsampling : 4:2:0 Bit depth : 8 bits Bits/(Pixel*Frame) : 0.161 Stream size : 1.33 GiB Language : Japanese Default : Yes Forced : No Color range : Limited Audio ID : 2 Format : AAC LC Format/Info : Advanced Audio Codec Low Complexity Codec ID : A_AAC-2 Duration : 23 min 50 s Bit rate : 128 kb/s Channel(s) : 2 channels Channel layout : L R Sampling rate : 44.1 kHz Frame rate : 43.066 FPS (1024 SPF) Compression mode : Lossy Stream size : 21.8 MiB (8%) Language : Japanese Default : Yes Forced : No Text #1 ID : 3 Format : ASS Codec ID : S_TEXT/ASS Codec ID/Info : Advanced Sub Station Alpha Duration : 23 min 48 s Bit rate : 87 b/s Count of elements : 248 Compression mode : Lossless Stream size : 15.2 KiB (0%) Title : English(US) Language : English Default : Yes Forced : No Text #2 ID : 4 Format : ASS Codec ID : S_TEXT/ASS Codec ID/Info : Advanced Sub Station Alpha Duration : 23 min 44 s Bit rate : 100 b/s Count of elements : 241 Compression mode : Lossless Stream size : 17.4 KiB (0%) Title : Portugues(Brasil) Language : Portuguese Default : No Forced : No Source: ER Screenshots: ![I5jtao.jpg](https://i1.lensdump.com/i/I5jtao.jpg) ![I5jrMi.jpg](https://i1.lensdump.com/i/I5jrMi.jpg) ![I5jR69.jpg](https://i2.lensdump.com/i/I5jR69.jpg)

File list

  • [NRN]_One_Piece_-_973_[1080p]_[Multiple_Subtitle].mkv (288.1 MiB)