Love Live! Nijigasaki High School Idol Club 3rd Live! School Idol Festival ~The beginning of the dream~ Day.1 / ラブライブ!虹ヶ咲学園スクールアイドル同好会 3rd Live! School Idol Festival ~夢の始まり~DAY.1

Category:
Date:
2021-05-09 13:07 UTC
Submitter:
Anonymous
Seeders:
19
Information:
No information.
Leechers:
0
File size:
9.2 GiB
Completed:
1028
Info hash:
348e3b44507f7f7b76142803492089289b146eaa
eplus streaming+ 自购自抓,仅对ts流转封装以确保正常播放。 令人化身高咲侑,无比悸动的一场Live。 祝贺动画第二季制作决定!夢はここから始まるよ,之后也要一起走下去! MediaInfo: ``` General Complete name : [FInall-Raws]ラブライブ!虹ヶ咲学園ス クールアイドル同好会 3rd Live! School Idol Festival ~夢の始まり~DAY.1_WEB-DL_eplus_live_stream.mp4 Format : MPEG-4 Format profile : base Media Codec ID : isom (isom/iso2/avc1/mp41) File size : 9.17 GiB Duration : 4 h 13 min Overall bit rate mode : Variable Overall bit rate : 5 174 kb/s Writing application : Lavf58.65.101 Video ID : 1 Format : AVC Format/Info : Advanced Video Codec Format profile : High@L4 Format settings : CABAC / 2 Ref frames Format settings CABAC : Yes Format settings Reference frames : 2 frames Format settings GOP : M=3 N=60 Codec ID : avc1 Codec ID/Info : Advanced Video Coding Duration : 4 h 13 min Source duration : 4 h 13 min Bit rate mode : Variable Bit rate : 4 702 kb/s Maximum bit rate : 6 000 kb/s Width : 1 920 pixels Height : 1 080 pixels Display aspect ratio : 16:9 frame rate mode : Constant frame rate : 29.970 (30000/1001) FPS Color space : YUV Chroma subsampling : 4:2:0 Bit depth : 8 bits Scan type : Progressive Bits/(Pixel*frame) : 0.076 Stream size : 8.34 GiB (91%) Source stream size : 8.70 GiB (95%) Color range : Limited Color primaries : BT.709 Transfer characteristics : BT.709 Matrix coefficients : BT.709 mdhd_Duration : 15228780 Codec configuration box : avcC Audio ID : 2 Format : AAC LC Format/Info : Advanced Audio Codec Low Complexity Codec ID : mp4a-40-2 Duration : 4 h 13 min Bit rate mode : Constant Bit rate : 258 kb/s Channel(s) : 2 channels Channel layout : L R Sampling rate : 48.0 kHz frame rate : 46.875 FPS (1024 SPF) Compression mode : Lossy Stream size : 468 MiB (5%) Language : English Default : Yes Alternate group : 1 ```

File list

  • [FInall-Raws]ラブライブ!虹ヶ咲学園スクールアイドル同好会 3rd Live! School Idol Festival ~夢の始まり~DAY.1_WEB-DL_eplus_live_stream.mp4 (9.2 GiB)
Thank you very much
About Day 2: I didn't bought ticket for day 2 so you need to wait for other uploaders.
I believe Setsugennoao is planning to upload both days. Might be a few days for them to be up. I have to watch the archive (and save the rip...) because the stream kept lagging to the point of not being watchable.
感谢分享,期待day2
there was a d2 torrent earlier but it got deleted. any idea why? i finished DLing it but havent opened it
About that day2 torrent: I downloaded it and it was not complete. It ends soon after anime season 2 announcing. I pointed out this in comments and soon it was deleted. ;(
>>>finall1008 Thank your notifying I am trying to download the video stream again If there is no accident, it will be reissued...