Haibane Renmei [DVD 704x480 AVC FLAC]

Category:
Date:
2021-05-07 23:07 UTC
Submitter:
Seeders:
59
Information:
Leechers:
2
File size:
5.3 GiB
Completed:
1102
Info hash:
f88c240073afcac1a62f93b4f38ccf7864b3ee0f
*Reupload again fixing audio sync issues on E07, E09, E11, and E13.* Video Source: [cestfait](https://nyaa.si/view/237396 "https://nyaa.si/view/237396") Audio Source: [Henshin](https://rutracker.org/forum/viewtopic.php?t=3178796 "https://rutracker.org/forum/viewtopic.php?t=3178796") Subs Source: Some rar off Smoke's Anime Index Uploader Notes: This is something I cobbled together by muxing various releases from various sources. Cestfait's video was used as to date it's still by far the best encode. Why choose DVD or Bluray? The bluray for this anime is really bad to the point that no one should even consider watching it over the DVD. It's a piss-poor upscale that introduces an annoying amount of artifacts. The only real issue I had with cestfait's encodes was the audio. Vorbis is not audibly transparent and has a pretty bad tendency to really distort the highs. In blind tests I found this very easy notice. Sourcing FLAC audio was rather difficult as there aren't very many encodes of the R2J DVD but as with all things rutracker usually has it. The subs were pulled from a link on Smoke's Anime Index. I have absolutely no idea of the source but they were already timed for cestfait's encodes, so thankfully I didn't have to do anything besides mux files together. They seem higher quality than any other subs available with good typesetting and timing. **This should hopefully be a compilation of the highest quality sources currently available.** Mediainfo: >Unique ID : 196888243979557290862813189725662954000 (0x941F4BE5F82C29C2654CC510561B4210) >Complete name : Haibane Renmei - 01 [DVD 704x480 AVC FLAC][5D2EB0BE].mkv >Format : Matroska >Format version : Version 4 >File size : 497 MiB >Duration : 22 min 55 s >Overall bit rate mode : Variable >Overall bit rate : 3 033 kb/s >Writing application : mkvmerge v56.1.0 ('My Friend') 64-bit >Writing library : libebml v1.4.2 + libmatroska v1.6.3 >Attachments : Brianne_s_hand.ttf / BrushType.ttf / DFLIS6.ttf / penoftruth.ttf / PT_Sans-Web-Bold.otf / PT_Sans-Web-BoldItalic.otf > >Video >ID : 1 >Format : AVC >Format/Info : Advanced Video Codec >Format profile : High@L5.1 >Format settings : CABAC / 16 Ref Frames >Format settings, CABAC : Yes >Format settings, Reference frames : 16 frames >Codec ID : V_MPEG4/ISO/AVC >Duration : 22 min 55 s >Bit rate : 2 414 kb/s >Width : 704 pixels >Height : 480 pixels >Display aspect ratio : 16:9 >Original display aspect ratio : 3:2 >Frame rate mode : Constant >Frame rate : 29.970 (30000/1001) FPS >Standard : NTSC >Color space : YUV >Chroma subsampling : 4:2:0 >Bit depth : 8 bits >Scan type : Progressive >Bits/(Pixel*Frame) : 0.238 >Stream size : 396 MiB (80%) >Writing library : x264 core 59 r826M 138601d >Encoding settings : cabac=1 / ref=16 / deblock=1:0:0 / analyse=0x3:0x133 / me=tesa / subme=7 / brdo=1 / mixed_ref=1 / me_range=16 / chroma_me=1 / trellis=0 / 8x8dct=1 / cqm=0 / deadzone=21,11 / chroma_qp_offset=0 / threads=3 / nr=0 / decimate=0 / mbaff=0 / fgo=10 / bframes=16 / b_pyramid=1 / b_adapt=1 / b_bias=0 / direct=1 / wpredb=1 / bime=1 / keyint=250 / keyint_min=25 / scenecut=40(pre) / rc=crf / crf=13.0 / rceq='blurCplx^(1-qComp)' / qcomp=1.00 / qpmin=10 / qpmax=51 / qpstep=4 / ip_ratio=1.40 / pb_ratio=1.15 / aq=2:1.00 >Default : Yes >Forced : No > >Audio >ID : 2 >Format : FLAC >Format/Info : Free Lossless Audio Codec >Codec ID : A_FLAC >Duration : 22 min 53 s >Bit rate mode : Variable >Bit rate : 584 kb/s >Channel(s) : 2 channels >Channel layout : L R >Sampling rate : 48.0 kHz >Frame rate : 11.719 FPS (4096 SPF) >Bit depth : 16 bits >Compression mode : Lossless >Stream size : 95.6 MiB (19%) >Writing library : Lavf58.76.100 >Language : Japanese >Default : Yes >Forced : No > >Text >ID : 3 >Format : ASS >Codec ID : S_TEXT/ASS >Codec ID/Info : Advanced Sub Station Alpha >Duration : 22 min 25 s >Bit rate : 257 b/s >Count of elements : 544 >Compression mode : Lossless >Stream size : 42.3 KiB (0%) >Language : English >Default : Yes >Forced : No > >Menu >00:00:00.000 : Opening >00:01:40.534 : Episode >00:21:31.757 : Ending > >

File list

  • Haibane Renmei [DVD 704x480 AVC FLAC]
    • Haibane Renmei - 01 [DVD 704x480 AVC FLAC][5D2EB0BE].mkv (497.4 MiB)
    • Haibane Renmei - 02 [DVD 704x480 AVC FLAC][343095A5].mkv (375.1 MiB)
    • Haibane Renmei - 03 [DVD 704x480 AVC FLAC][322563F4].mkv (351.7 MiB)
    • Haibane Renmei - 04 [DVD 704x480 AVC FLAC][58363850].mkv (368.5 MiB)
    • Haibane Renmei - 05 [DVD 704x480 AVC FLAC][216569CE].mkv (407.2 MiB)
    • Haibane Renmei - 06 [DVD 704x480 AVC FLAC][E90B2908].mkv (486.7 MiB)
    • Haibane Renmei - 07 [DVD 704x480 AVC FLAC][67A46CC0].mkv (356.8 MiB)
    • Haibane Renmei - 08 [DVD 704x480 AVC FLAC][584D1509].mkv (377.7 MiB)
    • Haibane Renmei - 09 [DVD 704x480 AVC FLAC][8DFD0424].mkv (378.5 MiB)
    • Haibane Renmei - 10 [DVD 704x480 AVC FLAC][DB7829D0].mkv (436.6 MiB)
    • Haibane Renmei - 11 [DVD 704x480 AVC FLAC][064B4E9F].mkv (407.2 MiB)
    • Haibane Renmei - 12 [DVD 704x480 AVC FLAC][D9F9A2C1].mkv (432.3 MiB)
    • Haibane Renmei - 13 [DVD 704x480 AVC FLAC][8C9D1275].mkv (548.6 MiB)
Awesome work. This shouldn't be marked "red" since it isn't a re-encode, but a muxing of the best sources available. Thanks@Tesseract.

Tesseract (uploader)

User
@Kulot99 Thank you for the feedback I've removed the remake tag. I figured that this would fall under "Remux of another uploader's original release for hardsubbing and/or fixing purposes." but after thinking about it the changes of this release are substantial enough to differentiate it from the original releases it's derived from.
henshin's encode look better though.
an someone seed it for me plz