[MagicStar] Sora ni Sumu 2020 [WEBDL] [1080p] [AMZN] [JPN_SUB]

Category:
Date:
2021-05-07 00:37 UTC
Submitter:
Seeders:
4
Information:
Leechers:
3
File size:
12.0 GiB
Completed:
433
Info hash:
34edb90c56d4ba4d10b6a1b2a2ed32afe6546e17
HD 1080p from Prime Video. ![alt text](https://i.ibb.co/w0g8smN/81b-KJFR8-Ko-S.jpg) ![alt text](https://i.ibb.co/5KZSBHz/Sora-ni-Sumu-2020-1080p-AMZN-WEB-DL-DDP5-1-H-264-Magic-Star-mkv.jpg) ``` General Unique ID : 238749490421348302246653881657363090528 (0xB39D7AB2284E1A220BC3B4A7871D4C60) Complete name : Sora.ni.Sumu.2020.1080p.AMZN.WEB-DL.DDP5.1.H.264-MagicStar.mkv Format : Matroska Format version : Version 4 File size : 12.0 GiB Duration : 1 h 58 min Overall bit rate : 14.6 Mb/s Encoded date : UTC 2021-05-07 00:02:50 Writing application : mkvmerge v50.0.0 ('Awakenings') 64-bit Writing library : libebml v1.4.0 + libmatroska v1.6.2 Cover : Yes Attachments : cover.png Video ID : 1 Format : AVC Format/Info : Advanced Video Codec Format profile : High@L4 Format settings : CABAC / 4 Ref Frames Format settings, CABAC : Yes Format settings, Reference fra : 4 frames Codec ID : V_MPEG4/ISO/AVC Duration : 1 h 58 min Bit rate : 13.9 Mb/s Width : 1 920 pixels Height : 1 040 pixels Display aspect ratio : 1.85:1 Frame rate mode : Constant Frame rate : 23.976 (24000/1001) FPS Color space : YUV Chroma subsampling : 4:2:0 Bit depth : 8 bits Scan type : Progressive Bits/(Pixel*Frame) : 0.291 Stream size : 11.5 GiB (96%) Default : Yes Forced : No Color range : Limited Color primaries : BT.709 Transfer characteristics : BT.709 Matrix coefficients : BT.709 Audio ID : 2 Format : E-AC-3 Format/Info : Enhanced AC-3 Commercial name : Dolby Digital Plus Codec ID : A_EAC3 Duration : 1 h 58 min Bit rate mode : Constant Bit rate : 640 kb/s Channel(s) : 6 channels Channel layout : L R C LFE Ls Rs Sampling rate : 48.0 kHz Frame rate : 31.250 FPS (1536 SPF) Compression mode : Lossy Stream size : 541 MiB (4%) Language : Japanese Service kind : Complete Main Default : Yes Forced : No ```

File list

Thank you so much. It will be pleasure from now on.
Domo arigato so very much for this.