[IrizaRaws] Dounika Naru Hibi (BDRip 1920x1080 x264 10bit DTS FLAC)

Category:
Date:
2021-05-04 18:52 UTC
Submitter:
Seeders:
3
Information:
No information.
Leechers:
1
File size:
5.5 GiB
Completed:
39
Info hash:
e34f4f6757e5473ec498a8d45d8d34c3c35b8f73
Hello! My rips are made from Japanese BDMV, unless stated otherwise. In terms of video quality, my raws should be comparable to ReinForce (since I started from their settings, and then modified it). I don’t use AA, blur, denoise and other such “enhancements”. Basically, the idea of my encodes will be: as similar to BDMV as possible, while reducing size 3-4 times. Also I will rip Audio Commentaries, interview’s and such things (everything, that’s on BD). Again, If you found any Bugs, mistakes, problems etc. Please comment! If needed I will reencode. About this Anime: https://myanimelist.net/anime/40747 https://anidb.net/anime/15273 SEED PLEASE! Acknowledgments for BDMV: UCCUSS MediaInfo: General Unique ID : 255916143226905049883835067181757626482 (0xC087A806819FAF05A0E8F21C1FCBF872) Complete name : D:\work\Rip\Dounika Naru Hibi\[IrizaRaws] Dounika Naru Hibi (BDRip 1920x1080 x264 10bit DTS FLAC)\[IrizaRaws] Dounika Naru Hibi (BDRip 1920x1080 x264 10bit DTS FLAC).mkv Format : Matroska Format version : Version 4 / Version 2 File size : 2.97 GiB Duration : 54 min 18 s Overall bit rate mode : Variable Overall bit rate : 7 830 kb/s Encoded date : UTC 2021-05-04 10:50:21 Writing application : mkvmerge v52.0.0 ('Secret For The Mad') 64-bit Writing library : libebml v1.4.1 + libmatroska v1.6.2 Video ID : 1 Format : AVC Format/Info : Advanced Video Codec Format profile : High 10@L5.2 Format settings : CABAC / 8 Ref Frames Format settings, CABAC : Yes Format settings, RefFrames : 8 frames Codec ID : V_MPEG4/ISO/AVC Duration : 54 min 18 s Bit rate : 3 293 kb/s Width : 1 920 pixels Height : 1 080 pixels Display aspect ratio : 16:9 Frame rate mode : Constant Frame rate : 23.976 (24000/1001) FPS Color space : YUV Chroma subsampling : 4:2:0 Bit depth : 10 bits Scan type : Progressive Bits/(Pixel*Frame) : 0.066 Stream size : 1.25 GiB (42%) Writing library : x264 core 161 r3033 0d754ec Encoding settings : cabac=1 / ref=8 / deblock=1:-2:-2 / analyse=0x3:0x113 / me=umh / subme=9 / psy=1 / psy_rd=0.70:0.00 / mixed_ref=0 / me_range=32 / chroma_me=1 / trellis=2 / 8x8dct=1 / cqm=0 / deadzone=21,11 / fast_pskip=0 / chroma_qp_offset=-2 / threads=22 / lookahead_threads=3 / sliced_threads=0 / nr=0 / decimate=1 / interlaced=0 / bluray_compat=0 / constrained_intra=0 / bframes=9 / b_pyramid=2 / b_adapt=2 / b_bias=0 / direct=0 / weightb=1 / open_gop=0 / weightp=2 / keyint=250 / keyint_min=23 / scenecut=40 / intra_refresh=0 / rc=crf / mbtree=0 / crf=17.5 / qcomp=1.00 / qpmin=0 / qpmax=40 / qpstep=4 / ip_ratio=1.40 / pb_ratio=1.30 / aq=1:1.00 Default : Yes Forced : No Audio #1 ID : 2 Format : DTS Format/Info : Digital Theater Systems Format profile : MA / Core Mode : 16 Format settings, Endianness : Big Codec ID : A_DTS Duration : 54 min 18 s Bit rate mode : Variable / Constant Bit rate : 3 233 kb/s / 1 509 kb/s Channel(s) : 6 channels Channel positions : Front: L C R, Side: L R, LFE Sampling rate : 48.0 kHz Frame rate : 93.750 FPS (512 SPF) Bit depth : 24 bits Compression mode : Lossless / Lossy Stream size : 1.23 GiB (41%) Title : Main DTS 5.1 Language : Japanese Default : Yes Forced : No Audio #2 ID : 3 Format : FLAC Format/Info : Free Lossless Audio Codec Codec ID : A_FLAC Duration : 54 min 18 s Bit rate mode : Variable Bit rate : 1 301 kb/s Channel(s) : 2 channels Channel positions : Front: L R Sampling rate : 48.0 kHz Frame rate : 11.719 FPS (4096 SPF) Bit depth : 24 bits Stream size : 505 MiB (17%) Title : Main FLAC 2.0 Writing library : libFLAC 1.3.3 (UTC 2019-08-04) Language : Japanese Default : No Forced : No Menu 00:00:00.000 : en:Chapter 01 00:03:40.720 : en:Chapter 02 00:07:37.123 : en:Chapter 03 00:12:23.242 : en:Chapter 04 00:15:47.863 : en:Chapter 05 00:20:36.443 : en:Chapter 06 00:24:53.241 : en:Chapter 07 00:26:49.441 : en:Chapter 08 00:32:53.262 : en:Chapter 09 00:37:03.012 : en:Chapter 10 00:40:12.159 : en:Chapter 11 00:45:34.356 : en:Chapter 12 00:47:52.327 : en:Chapter 13 00:50:15.512 : en:Chapter 14

File list

  • [IrizaRaws] Dounika Naru Hibi (BDRip 1920x1080 x264 10bit DTS FLAC)
    • Bonus
      • Menu
        • [IrizaRaws] Dounika Naru Hibi Menu (BDRip 1920x1080 x264 10bit DTS).mkv (11.2 MiB)
      • PV
        • [IrizaRaws] Dounika Naru Hibi CM - 01 (BDRip 1920x1080 x264 10bit FLAC).mkv (21.2 MiB)
        • [IrizaRaws] Dounika Naru Hibi CM - 02 (BDRip 1920x1080 x264 10bit FLAC).mkv (9.6 MiB)
        • [IrizaRaws] Dounika Naru Hibi PV - 01 (BDRip 1920x1080 x264 10bit FLAC).mkv (23.4 MiB)
        • [IrizaRaws] Dounika Naru Hibi PV - 02 (BDRip 1920x1080 x264 10bit FLAC).mkv (66.5 MiB)
      • RL
        • [IrizaRaws] Dounika Naru Hibi RL - 01 (BDRip 1920x820 x264 10bit FLAC).mkv (363.3 MiB)
        • [IrizaRaws] Dounika Naru Hibi RL - 02 (BDRip 1920x820 x264 10bit FLAC).mkv (1.3 GiB)
        • [IrizaRaws] Dounika Naru Hibi RL - 03 (BDRip 1920x820 x264 10bit FLAC).mkv (558.3 MiB)
      • Scans
        • Scan 001.png (9.4 MiB)
        • Scan 002.png (21.0 MiB)
        • Scan 003.png (492.8 KiB)
        • Scan 004.png (20.5 MiB)
        • Scan 005.png (621.2 KiB)
        • Scan 006.png (699.1 KiB)
        • Scan 007.png (16.3 MiB)
        • Scan 008.png (16.6 MiB)
        • Scan 009.png (7.9 MiB)
        • Scan 010.png (19.1 MiB)
        • Scan 011.png (8.5 MiB)
        • Scan 012.png (14.2 MiB)
        • Scan 013.png (5.1 MiB)
        • Scan 014.png (4.4 MiB)
        • Scan 015.png (5.5 MiB)
        • Scan 016.png (4.0 MiB)
        • Scan 017.png (5.3 MiB)
        • Scan 018.png (4.3 MiB)
        • Scan 019.png (4.7 MiB)
        • Scan 020.png (4.4 MiB)
        • Scan 021.png (25.6 MiB)
        • Scan 022.png (13.1 MiB)
      • [IrizaRaws] Dounika Naru Hibi Logo (BDRip 1920x1080 x264 10bit DTS FLAC).mkv (5.9 MiB)
    • [IrizaRaws] Dounika Naru Hibi (BDRip 1920x1080 x264 10bit DTS FLAC).mkv (3.0 GiB)
Do have a plan : - Chuunibyou demo Koi ga Shitai - Shakugan no Shana (2005, 2007 (S2), 2011 (S3)) - Saenai Heroine no Sodatekata (2015, 2017, 2019 (Movie Ver.)) - High School Fleet (2016, 2020 (Movie Ver.)) - Otome Game no Hametsu Flag shika Nai Akuyaku Reijou ni Tensei Shiteshimatta (2020) - Null Peta (2019) - Isekai Cheat Magician (2019) - Itai no wa Iya nano de Bougyoryoku ni Kyokufuri Shitai to Omoimasu (2020) - Uchi no Musume no Tame Naraba, Ore wa Moshikashitara Maou mo Taoseru Kamo Shirenai (2019) - Watashi Nouryoku wa Heikinchi de tte Itta yo ne! (2019) - Iroduku Sekai no Ashita kara (2018) - Tonari no Kyuuketsuki-san (2018) - Uma Musume Pretty Derby Animation (2018) - Kantai Collection -KanColle- (2015) - Yuuki Yuuna wa Yuusha de Aru (2014) - Youkoso Jitsuryoku Shijou Shugi no Kyoushitsu e (2017) - Konohana Kitan (2017) - Little Witch Academia (2017) - Galilei Donna (2013)

lorelei99 (uploader)

User
@LightningBusterMan Not planned to all.