[KayRips] Youth With You Season 3 Episode 22 WEB-DL.HEVC.x265 8-Bit AAC ENG Subbed (1080p)

Category:
Date:
2021-05-03 04:58 UTC
Submitter:
Seeders:
1
Information:
Leechers:
1
File size:
3.1 GiB
Completed:
7
Info hash:
1220e53d764d6e99baf4608d9cdd3080113742ba
DDL on discord https://discord.gg/whtT7vqfKB **Title :** Youth With You Season 3 / 青春有你3 **Episode :** 22 **Country :** China **Genre :** Friendship, Music, Youth **Duration :** 2 h 20 min 54 sec *(Combination of Part 1, and Part 2)* ``` Video ID : 1 Format : HEVC Format/Info : High Efficiency Video Coding Format profile : Main@L4@Main Codec ID : V_MPEGH/ISO/HEVC Duration : 2 h 20 min Bit rate : 2 963 kb/s Width : 1 920 pixels Height : 1 080 pixels Display aspect ratio : 16:9 Frame rate mode : Constant Frame rate : 24.000 FPS Color space : YUV Chroma subsampling : 4:2:0 Bit depth : 8 bits Bits/(Pixel*Frame) : 0.060 Stream size : 2.92 GiB (94%) Title : [KayRips] Default : Yes Forced : No Audio ID : 2 Format : AAC LC Format/Info : Advanced Audio Codec Low Complexity Codec ID : A_AAC-2 Duration : 2 h 20 min Bit rate : 192 kb/s Channel(s) : 2 channels Channel layout : L R Sampling rate : 44.1 kHz Frame rate : 43.066 FPS (1024 SPF) Compression mode : Lossy Stream size : 191 MiB (6%) Language : Chinese Default : Yes Forced : No Menu 00:00:00.000 : :Part 01 01:36:29.849 : :Part 02 ``` ![alt text](https://i.ibb.co/FV1SkxB/Kay-Rips-Youth-With-You-S03-E22-mkv-20210503-122920-858.png)

File list

  • [KayRips] Youth With You - S03E22.mkv (3.1 GiB)