[BYG-RAWS][龙樱2/ドラゴン桜2/Dragon Zakura 2][EP02][1080P][内封日文字幕]

Category:
Date:
2021-05-03 02:33 UTC
Submitter:
Anonymous
Seeders:
11
Information:
No information.
Leechers:
3
File size:
1.5 GiB
Completed:
419
Info hash:
bb4322013da6c467a5b8d8344a597b3ef0cd1288
ID : 1 Format : AVC Format/Info : Advanced Video Codec Format profile : High@L4 Format settings, CABAC : Yes Format settings, ReFrames : 4 frames Codec ID : V_MPEG4/ISO/AVC Duration : 59 min 22 s Bit rate : 3 468 kb/s Width : 1 920 pixels Height : 1 080 pixels Display aspect ratio : 16:9 Frame rate mode : Constant Frame rate : 29.970 (30000/1001) FPS Color space : YUV Chroma subsampling : 4:2:0 Bit depth : 8 bits Scan type : Progressive Bits/(Pixel*Frame) : 0.056 Stream size : 1.44 GiB (95%) Default : Yes Forced : No Color range : Limited Color primaries : BT.709 Transfer characteristics : BT.709 Matrix coefficients : BT.709 ID : 3 Format : AAC Format/Info : Advanced Audio Codec Format profile : LC Codec ID : A_AAC Duration : 59 min 23 s Bit rate : 192 kb/s Channel(s) : 2 channels Channel positions : Front: L R Sampling rate : 48.0 kHz Frame rate : 46.875 FPS (1024 spf) Compression mode : Lossy Stream size : 81.5 MiB (5%) Default : Yes Forced : No

File list

  • 第2話 人生の大勝負!お前の道はお前が決めろ!.mkv (1.5 GiB)
thanks! good sound !!!
Thank you so much. It will be pleasure from now on.