Seitokai Yakuindomo The Movie 2 (1280x720 x264 8-bit AAC)

Category:
Date:
2021-05-02 07:54 UTC
Submitter:
Seeders:
7
Information:
No information.
Leechers:
0
File size:
998.3 MiB
Completed:
314
Info hash:
dd9a43c0f491a751c86c6a0868349ce1c1c86c22
just a shitty 8-bit AVC re-encode of [#1378275](https://nyaa.si/view/1378275) for people who cannot play 10-bit HEVC video on their old PC/tablet/Raspberry Pi etc ![](https://i.imgur.com/4C3SJjc.png) General Unique ID : 301624262825562628742502077562217146874 (0xE2EAB85025A84F2A88D624DFDFFDA9FA) Complete name : Seitokai Yakuindomo The Movie 2 (1280x720 x264 8-bit AAC).mkv Format : Matroska Format version : Version 4 File size : 998 MiB Duration : 1 h 20 min Overall bit rate : 1 739 kb/s Writing application : Lavf59.0.100 Writing library : Lavf59.0.100 ErrorDetectionType : Per level 1 Video ID : 1 Format : AVC Format/Info : Advanced Video Codec Format profile : High@L3.1 Format settings : CABAC / 4 Ref Frames Format settings, CABAC : Yes Format settings, Reference frames : 4 frames Codec ID : V_MPEG4/ISO/AVC Duration : 1 h 20 min Bit rate : 2 847 kb/s Width : 1 280 pixels Height : 720 pixels Display aspect ratio : 16:9 Frame rate mode : Constant Frame rate : 23.976 (24000/1001) FPS Color space : YUV Chroma subsampling : 4:2:0 Bit depth : 8 bits Scan type : Progressive Bits/(Pixel*Frame) : 0.129 Stream size : 1.60 GiB Writing library : x264 core 161 r3053 c347e7a Encoding settings : cabac=1 / ref=3 / deblock=1:0:0 / analyse=0x3:0x113 / me=hex / subme=7 / psy=1 / psy_rd=1.00:0.00 / mixed_ref=1 / me_range=16 / chroma_me=1 / trellis=1 / 8x8dct=1 / cqm=0 / deadzone=21,11 / fast_pskip=1 / chroma_qp_offset=-2 / threads=3 / lookahead_threads=1 / sliced_threads=0 / nr=0 / decimate=1 / interlaced=0 / bluray_compat=0 / constrained_intra=0 / bframes=3 / b_pyramid=2 / b_adapt=1 / b_bias=0 / direct=1 / weightb=1 / open_gop=0 / weightp=2 / keyint=250 / keyint_min=23 / scenecut=40 / intra_refresh=0 / rc_lookahead=40 / rc=crf / mbtree=1 / crf=17.0 / qcomp=0.60 / qpmin=0 / qpmax=69 / qpstep=4 / ip_ratio=1.40 / aq=1:1.00 Default : Yes Forced : No Color range : Limited Audio ID : 2 Format : AAC LC Format/Info : Advanced Audio Codec Low Complexity Codec ID : A_AAC-2 Duration : 1 h 20 min Bit rate : 128 kb/s Channel(s) : 2 channels Channel layout : L R Sampling rate : 44.1 kHz Frame rate : 43.066 FPS (1024 SPF) Compression mode : Lossy Stream size : 73.5 MiB (7%) Language : English Default : Yes Forced : No Text ID : 3 Format : ASS Codec ID : S_TEXT/ASS Codec ID/Info : Advanced Sub Station Alpha Duration : 1 h 19 min Bit rate : 2 332 b/s Count of elements : 9050 Compression mode : Lossless Stream size : 1.31 MiB (0%) Title : English [B-Bass] Writing library : Lavc59.0.100 ssa Default : Yes Forced : Yes

File list

  • Seitokai Yakuindomo The Movie 2 (1280x720 x264 8-bit AAC).mkv (998.3 MiB)
My Windows 7 laptop thanks you for the reencoding!

Niidou (uploader)

User
@Andrzej You are welcome!