[KayRips] Youth With You Season 3 Episode 21 WEB-DL.HEVC.x265 8-Bit AAC ENG Subbed (1080p)

Category:
Date:
2021-04-30 09:32 UTC
Submitter:
Seeders:
1
Information:
Leechers:
0
File size:
4.3 GiB
Completed:
9
Info hash:
d6831d78e6217c1673411e25e5806ca1940946af
DDL on discord https://discord.gg/whtT7vqfKB **Title :** Youth With You Season 3 / 青春有你3 **Episode :** 21 **Country :** China **Genre :** Friendship, Music, Youth **Duration :** 3 h 3 min 19 sec *(Combination of Part 1, and Part 2)* ``` Video ID : 1 Format : HEVC Format/Info : High Efficiency Video Coding Format profile : Main@L4@Main Codec ID : V_MPEGH/ISO/HEVC Duration : 3 h 3 min Bit rate : 3 200 kb/s Width : 1 920 pixels Height : 1 080 pixels Display aspect ratio : 16:9 Frame rate mode : Constant Frame rate : 24.000 FPS Color space : YUV Chroma subsampling : 4:2:0 Bit depth : 8 bits Bits/(Pixel*Frame) : 0.064 Stream size : 4.10 GiB (94%) Title : [KayRips] Default : Yes Forced : No Audio ID : 2 Format : AAC LC Format/Info : Advanced Audio Codec Low Complexity Codec ID : A_AAC-2 Duration : 3 h 3 min Bit rate : 192 kb/s Channel(s) : 2 channels Channel layout : L R Sampling rate : 44.1 kHz Frame rate : 43.066 FPS (1024 SPF) Compression mode : Lossy Stream size : 249 MiB (6%) Language : Chinese Default : Yes Forced : No Menu 00:00:00.000 : :Part 01 01:51:33.105 : :Part 02 ``` ![alt text](https://i.ibb.co/RBYm6q4/Kay-Rips-Youth-With-You-S03-E21-mkv-20210430-172520-811.png)

File list

  • [KayRips] Youth With You - S03E21.mkv (4.3 GiB)