[neoHEVC] Squid Girl [Season 1 + 2 + OVA] [BD 1080p x265 HEVC AAC] [Dual Audio] Shinryaku! Ika Musume

Category:
Date:
2021-04-27 12:38 UTC
Submitter:
Seeders:
21
Information:
Leechers:
3
File size:
7.8 GiB
Completed:
668
Info hash:
b54f965c19c08dccf462eb1aa501f84b77c9c5e8
![](https://i.imgur.com/RBlGp48.png) *Join **[Discord](https://discord.gg/47Q7FdB54e)** for Current Projects, Encode-Requests and Seed-Request in case of no available seeds.* **Squid Girl / Shinryaku! Ika Musume [Season 1 + 2 + OVA]** *with `Dual Audio (Jpn/Eng)` and `Eng Subs` in `BD 1080p HEVC`* Reencode of [ReinForce] (x264 AVC FLAC) to (x265 HEVC AAC) with added English audio tracks from [Bluury] and English subtitles from [FFF/FFFpeeps, Vivid]. *Side Note: I created additional [Signs & Songs] subtitle tracks from the [Dialog] subtitle tracks to go with the added English audio tracks. In case you are wondering what the difference is between this and the [Bluury] release besides this being a filthy reencode: There are NO commentary audio and NO PGS subtitle tracks in here and I did a fresh timing of the .ass subtitles which were unfortunately out of sync (main reason I did my own version).* ![](https://i.imgur.com/4iegWLL.png) **[Trailer](https://www.youtube.com/watch?v=YhxbmA1noxg)** ![](https://i.imgur.com/3UxGuWB.png) ![](https://i.imgur.com/ZCtSawZ.png) **[MyAnimeList: Squid Girl [Season 1]](https://myanimelist.net/anime/8557/Shinryaku_Ika_Musume)** ![](https://i.imgur.com/3UxGuWB.png) ![](https://i.imgur.com/ZCtSawZ.png) **[MyAnimeList: Squid Girl [Season 2]](https://myanimelist.net/anime/10378/Shinryaku_Ika_Musume)** ![](https://i.imgur.com/3UxGuWB.png) ![](https://i.imgur.com/ZCtSawZ.png) **[MyAnimeList: Squid Girl [OVA]](https://myanimelist.net/anime/13267/Shinryaku_Ika_Musume)** --- **Synopsis** Humans have been polluting the ocean for a long time, carelessly pouring their garbage and desecrating the waters that many creatures call home. The denizens of the sea have suffered at their poisoning hands. Finally, one certain squid has had enough and vows to punish the humans' selfish actions. Possessing all the fearsome abilities of a squid such as powerful hair-tentacles, the ability to spit ink, and even use bioluminescence at will, Ika Musume takes it upon herself to rise from the depths of the ocean and exact revenge upon humanity! She surfaces at a certain Lemon Beach House, a restaurant managed by the sisters Eiko and Chizuru Aizawa. Thinking them to be an easy first step toward world domination, she immediately declares war against them, only to find out that she is, quite literally, a fish out of water! To make things worse, she destroys a part of a wall of the beach house in an attempt to flaunt her squiddy superiority and is consequently forced into becoming a waitress to pay the repair costs. Beached for the time being after tasting a thorough defeat at the hands of the Aizawa sisters, Ika Musume is forced to put her plans for world domination on hold. Despite these setbacks, Ika Musume soon finds herself right at home in her unexpected position as Lemon Beach House's newest employee. Wacky and hilarious, Shinryaku! Ika Musume follows her brand new life on the surface as she makes precious memories and meet lots of new people. With her newfound acquaintances, Ika Musume is looking to take the world by storm, one squid ink spaghetti at a time! ![](https://i.imgur.com/7snV0Xs.png) --- **Language Options** I included two simple scripts that you can apply to these files to do the following (Windows only): 1. Change [Default Tracks]: Switches default tracks to *A:Japanese S:Dialog* 2. Make [Single Audio]: Throws out *English audio* and *Signs&Songs subtitles* tracks To apply these put all the video files into the *Language Options* folder and run the .bat file. <1> Changes existing files, <2> creates new ones in the *output* folder. --- **Comparison** *Open links, toggle with mouseclick and check title.* [![](https://i.imgur.com/lUn4zwG.png)](https://slow.pics/c/LH3iJuog) [![](https://i.imgur.com/kj0rn2k.png)](https://slow.pics/c/VACYYLHG) [![](https://i.imgur.com/TGGvaH5.png)](https://slow.pics/c/Bq2lkSde) --- **Source** ?️ Video and JPN Audio: **[[ReinForce]](https://nyaa.si/view/1338730)** ?️ ENG Audio: **[[Bluury]](https://nyaa.si/view/1102034)** ?️ Subtitles: **[[AniDL]](https://nyaa.si/view/1049234)** ? *Subtitles Info: [FFF/FFFpeeps, Vivid] - Format `ASS`* --- **Media Info** ? [Full Mediainfo incl. Encoder Settings](https://pastebin.com/AaNZKzLq) ``` General Complete name : Squid Girl - S01E01.mkv Format : Matroska Format version : Version 4 File size : 302 MiB Duration : 23 min 57 s Overall bit rate : 1 765 kb/s Movie name : Squid Girl - S01E01 Encoded date : UTC 2021-04-26 09:44:32 Writing application : mkvmerge v47.0.0 ('Black Flag') 64-bit Writing library : libebml v1.3.10 + libmatroska v1.5.2 / Lavf58.29.100 Attachments : ihatecomicsans.ttf / mangolov.ttf / ScalaSans-Bold.ttf / segoeprb.ttf / ulove.ttf / adobeheitistd-regular.otf / blackout.ttf / ihatecomicsans.ttf / mangolov.ttf / ScalaSans-Bold.ttf / segoeprb.ttf / ulove.ttf / adobeheitistd-regular.otf / blackout.ttf Video ID : 1 Format : HEVC Format/Info : High Efficiency Video Coding Format profile : Main 10@L4.1@High Duration : 23 min 55 s Bit rate : 1 336 kb/s Width : 1 920 pixels Height : 1 080 pixels Display aspect ratio : 16:9 Frame rate mode : Constant Frame rate : 23.976 (24000/1001) FPS Color space : YUV Chroma subsampling : 4:2:0 Bit depth : 10 bits Bits/(Pixel*Frame) : 0.027 Stream size : 229 MiB (76%) Writing library : x265 3.2.1+1-b5c86a64bbbe:[Windows][GCC 9.2.0][64 bit] 10bit Encoding settings : <Check Link Above> Default : Yes Forced : No Color range : Limited Color primaries : BT.709 Transfer characteristics : BT.709 Matrix coefficients : BT.709 Audio #1 ID : 2 Format : AAC LC Format/Info : Advanced Audio Codec Low Complexity Duration : 23 min 57 s Bit rate : 160 kb/s Channel(s) : 2 channels Channel layout : L R Sampling rate : 48.0 kHz Compression mode : Lossy Delay relative to video : 1 ms Stream size : 27.3 MiB (9%) Title : Stereo - ENG (AAC) Language : English Default : Yes Forced : No Audio #2 ID : 3 Format : AAC LC Format/Info : Advanced Audio Codec Low Complexity Duration : 23 min 56 s Bit rate : 126 kb/s Channel(s) : 2 channels Channel layout : L R Sampling rate : 48.0 kHz Compression mode : Lossy Stream size : 21.6 MiB (7%) Title : Stereo - JPN (AAC) Language : Japanese Default : No Forced : No Text #1 ID : 4 Format : ASS Codec ID : S_TEXT/ASS Codec ID/Info : Advanced Sub Station Alpha Duration : 23 min 32 s Bit rate : 45 b/s Count of elements : 69 Compression mode : Lossless Stream size : 7.86 KiB (0%) Title : Signs & Songs - ENG (ASS) Language : English Default : Yes Forced : No Text #2 ID : 5 Format : ASS Codec ID : S_TEXT/ASS Codec ID/Info : Advanced Sub Station Alpha Duration : 23 min 46 s Bit rate : 159 b/s Count of elements : 466 Compression mode : Lossless Stream size : 27.7 KiB (0%) Title : Dialog - ENG (ASS) Language : English Default : No Forced : No Menu 00:00:00.000 : en:Prologue 00:00:23.523 : en:Opening 00:01:53.071 : en:Episode 01 - Won't You Invade? 00:08:32.094 : en:Episode 02 - Aren't You My Comrade? 00:14:58.856 : en:Episode 03 - Am I Not The Strongest? 00:22:10.871 : en:Ending 00:23:41.837 : en:Preview 00:23:57.436 : en:credits ```

File list

  • [neoHEVC] Squid Girl [Season 1+2 + OVAs] [BD 1080p x265 HEVC AAC] [Dual Audio]
    • Language Options
      • 1. Change [Default Tracks].bat (283 Bytes)
      • 2. Make [Single Audio] Japanese.bat (124 Bytes)
      • mkvmerge.exe (9.6 MiB)
      • mkvpropedit.exe (5.1 MiB)
      • readme.txt (458 Bytes)
    • Season 1
      • Squid Girl - S01E01.mkv (302.4 MiB)
      • Squid Girl - S01E02.mkv (284.0 MiB)
      • Squid Girl - S01E03.mkv (299.7 MiB)
      • Squid Girl - S01E04.mkv (265.8 MiB)
      • Squid Girl - S01E05.mkv (306.1 MiB)
      • Squid Girl - S01E06.mkv (298.9 MiB)
      • Squid Girl - S01E07.mkv (233.3 MiB)
      • Squid Girl - S01E08.mkv (290.5 MiB)
      • Squid Girl - S01E09.mkv (275.4 MiB)
      • Squid Girl - S01E10.mkv (300.9 MiB)
      • Squid Girl - S01E11.mkv (288.7 MiB)
      • Squid Girl - S01E12.mkv (338.5 MiB)
    • Season 2
      • Squid Girl - S02E01.mkv (326.5 MiB)
      • Squid Girl - S02E02.mkv (289.8 MiB)
      • Squid Girl - S02E03.mkv (300.5 MiB)
      • Squid Girl - S02E04.mkv (313.1 MiB)
      • Squid Girl - S02E05.mkv (289.9 MiB)
      • Squid Girl - S02E06.mkv (298.7 MiB)
      • Squid Girl - S02E07.mkv (283.5 MiB)
      • Squid Girl - S02E08.mkv (259.4 MiB)
      • Squid Girl - S02E09.mkv (292.2 MiB)
      • Squid Girl - S02E10.mkv (302.5 MiB)
      • Squid Girl - S02E11.mkv (320.2 MiB)
      • Squid Girl - S02E12.mkv (322.3 MiB)
    • Specials
      • Squid Girl - S00E03 - (S2O1).mkv (331.2 MiB)
      • Squid Girl - S00E04 - (S2O2).mkv (292.7 MiB)
      • Squid Girl - S00E05 - (S2O3).mkv (282.5 MiB)
thanks. bless you

Tho

User
Thanks for this gem, always wanted to watch it but could never find a decent seeded version!
this is awesome thanks for the up. this girl can take over the world with my consent and support..she is great..man this made me cry

neoborn (uploader)

User
![](https://i.imgur.com/h0UR2U9.png) **She sure is cute. Squid supremacy!**
@neoborn ....stealing that ... i may make it my next tattoo ...yeah
Thank you so much.
Thanks for superb work as always!