[KayRips] Men on a Mission (2015) Episode 277 [1080p][WEB-DL x264][Eng-Subs]

Category:
Date:
2021-04-26 23:29 UTC
Submitter:
Seeders:
3
Information:
Leechers:
0
File size:
2.8 GiB
Completed:
12
Info hash:
4679b54eb38732a4f21d6e1985c8c46d34cc68d8
DDL on discord https://discord.gg/whtT7vqfKB **Title :** Knowing Bros / 아는형님 / Knowing Brothers / Men On A Mission / Ask Us Anything **Episode :** 277 / S2021E16 **Country :** South Korea **Genre :** Korean Talk Show **Duration :** 1 h 44 min 25 sec ``` Video ID : 2 Format : AVC Format/Info : Advanced Video Codec Format profile : High@L4.1 Format settings : CABAC / 4 Ref Frames Format settings, CABAC : Yes Format settings, Reference frames : 4 frames Codec ID : V_MPEG4/ISO/AVC Duration : 1 h 44 min Bit rate mode : Variable Bit rate : 3 802 kb/s Maximum bit rate : 4 500 kb/s Width : 1 920 pixels Height : 1 080 pixels Display aspect ratio : 16:9 Frame rate mode : Constant Frame rate : 29.970 (30000/1001) FPS Original frame rate : 29.970 (29970/1000) FPS Color space : YUV Chroma subsampling : 4:2:0 Bit depth : 8 bits Scan type : Progressive Bits/(Pixel*Frame) : 0.061 Stream size : 2.77 GiB (97%) Title : [KayRips] Writing library : VOLO1.4.1 Default : Yes Forced : No Audio ID : 3 Format : AAC LC Format/Info : Advanced Audio Codec Low Complexity Codec ID : A_AAC-2 Duration : 1 h 44 min Bit rate : 96.0 kb/s Channel(s) : 2 channels Channel layout : L R Sampling rate : 48.0 kHz Frame rate : 46.875 FPS (1024 SPF) Compression mode : Lossy Delay relative to video : -42 ms Stream size : 71.7 MiB (2%) Language : Korean Default : Yes Forced : No ``` ![alt text](https://i.ibb.co/71Jh5kW/Kay-Rips-Men-on-a-Mission-2015-S2021-E16-277-mkv-20210426-042329-439.png)

File list

  • [KayRips] Men on a Mission (2015) - S2021E16 (277).mkv (2.8 GiB)