Kizuna AI Afterparty: DAY1

Category:
Date:
2021-04-25 11:13 UTC
Submitter:
Seeders:
7
Information:
No information.
Leechers:
0
File size:
1.4 GiB
Completed:
177
Info hash:
dd8e0df860905975cbb9296d6f7dda46fb370093
DLed with youtube-dl during the live stream. ``` Video ID : 1 Format : AVC Format/Info : Advanced Video Codec Format profile : High@L4 Format settings : CABAC / 4 Ref Frames Format settings, CABAC : Yes Format settings, Reference frames : 4 frames Format settings, GOP : M=3, N=60 Codec ID : avc1 Codec ID/Info : Advanced Video Coding Duration : 32 min 7 s Source duration : 32 min 7 s Bit rate mode : Constant Bit rate : 6 000 kb/s Width : 1 920 pixels Height : 1 080 pixels Display aspect ratio : 16:9 Frame rate mode : Variable Frame rate : 30.000 FPS Minimum frame rate : 29.412 FPS Maximum frame rate : 30.303 FPS Color space : YUV Chroma subsampling : 4:2:0 Bit depth : 8 bits Scan type : Progressive Bits/(Pixel*Frame) : 0.096 Stream size : 1.35 GiB (97%) Source stream size : 1.35 GiB (97%) Color range : Limited Color primaries : BT.709 Transfer characteristics : BT.709 Matrix coefficients : BT.709 mdhd_Duration : 1927832 Codec configuration box : avcC Audio ID : 2 Format : AAC LC Format/Info : Advanced Audio Codec Low Complexity Codec ID : mp4a-40-2 Duration : 32 min 8 s Bit rate mode : Constant Bit rate : 160 kb/s Channel(s) : 2 channels Channel layout : L R Sampling rate : 48.0 kHz Frame rate : 46.875 FPS (1024 SPF) Compression mode : Lossy Stream size : 36.8 MiB (3%) Default : Yes Alternate group : 1 ```

File list

  • Kizuna-AI-Afterparty-DAY1.mp4 (1.4 GiB)
I don't suppose we have the first few seconds of the video, do we? It seems the video starts mid-speech.

rubiiCore (uploader)

User
I unfortunately started the DL a few seconds late, you only missed the greeting at the beginning though.