[KayRips] Youth With You Season 3 Episode 20 WEB-DL.HEVC.x265 8-Bit AAC ENG Subbed (1080p)

Category:
Date:
2021-04-25 09:32 UTC
Submitter:
Seeders:
1
Information:
Leechers:
0
File size:
4.0 GiB
Completed:
10
Info hash:
43996c9e4d951a523805740a753484147b0f3784
DDL on discord https://discord.gg/whtT7vqfKB **Title :** Youth With You Season 3 / 青春有你3 **Episode :** 20 **Country :** China **Genre :** Friendship, Music, Youth **Duration :** 2 h 55 min 37 sec *(Combination of Part 1, and Part 2)* ``` Video ID : 1 Format : HEVC Format/Info : High Efficiency Video Coding Format profile : Main@L4@Main Codec ID : V_MPEGH/ISO/HEVC Duration : 2 h 55 min Bit rate : 3 065 kb/s Width : 1 920 pixels Height : 1 080 pixels Display aspect ratio : 16:9 Frame rate mode : Constant Frame rate : 24.000 FPS Color space : YUV Chroma subsampling : 4:2:0 Bit depth : 8 bits Bits/(Pixel*Frame) : 0.062 Stream size : 3.76 GiB (94%) Title : [KayRips] Default : Yes Forced : No Audio ID : 2 Format : AAC LC Format/Info : Advanced Audio Codec Low Complexity Codec ID : A_AAC-2 Duration : 2 h 55 min Bit rate : 192 kb/s Channel(s) : 2 channels Channel layout : L R Sampling rate : 44.1 kHz Frame rate : 43.066 FPS (1024 SPF) Compression mode : Lossy Stream size : 238 MiB (6%) Language : Chinese Default : Yes Forced : No Menu 00:00:00.000 : :Part 01 01:37:17.404 : :Part 02 ``` ![alt text](https://i.ibb.co/sCTnwwJ/Kay-Rips-Youth-With-You-S03-E20-mkv-20210425-095834-490.png)

File list

  • [KayRips] Youth With You - S03E20.mkv (4.0 GiB)
Hi, love this show and thanks soooo much for doing it. Is there any possible chance you would do season 2?

kayrips (uploader)

User
We are working on it, will probably release it when Season 3 ends.
That’s awesome. Thank youuuuu. Super appreciative.