[MagicStar] Nemesis EP02 [WEBDL] [1080p] [HULU] [JPN_SUB]

Category:
Date:
2021-04-23 10:56 UTC
Submitter:
Seeders:
15
Information:
Leechers:
3
File size:
1.3 GiB
Completed:
958
Info hash:
ed0499bebe0c5ac3fed3e540e99b24e61760d925
HD 1080p from HULU JAPAN. ![alt text](https://i.ibb.co/d2QrwvD/bd3c255f-70db-4b2f-9c23-ff8af7150f4c.jpg) ![alt text](https://i.ibb.co/XS15McY/Nemesis-EP02-1080p-HULU-WEB-DL-AAC2-0-H-264-Magic-Star-mkv.jpg) ``` General Unique ID : 132414595718821019457193849355702634048 (0x639E1F9D7DD7E3042D41D4225EFC0640) Complete name : Nemesis.EP02.1080p.HULU.WEB-DL.AAC2.0.H.264-MagicStar.mkv Format : Matroska Format version : Version 4 File size : 1.30 GiB Duration : 45 min 52 s Overall bit rate : 4 067 kb/s Encoded date : UTC 2021-04-23 10:46:49 Writing application : mkvmerge v52.0.0 ('Secret For The Mad') 64-bit Writing library : libebml v1.4.1 + libmatroska v1.6.2 Cover : Yes Attachments : cover.png Video ID : 1 Format : AVC Format/Info : Advanced Video Codec Format profile : High@L4 Format settings : CABAC / 4 Ref Frames Format settings, CABAC : Yes Format settings, Reference fra : 4 frames Codec ID : V_MPEG4/ISO/AVC Duration : 45 min 52 s Bit rate : 3 939 kb/s Width : 1 920 pixels Height : 1 080 pixels Display aspect ratio : 16:9 Frame rate mode : Constant Frame rate : 29.970 (29970/1000) FPS Original frame rate : 29.970 (30000/1001) FPS Color space : YUV Chroma subsampling : 4:2:0 Bit depth : 8 bits Scan type : Progressive Bits/(Pixel*Frame) : 0.063 Stream size : 1.26 GiB (97%) Default : Yes Forced : No Color range : Limited Color primaries : BT.709 Transfer characteristics : BT.709 Matrix coefficients : BT.709 Audio ID : 2 Format : AAC LC Format/Info : Advanced Audio Codec Low Complexity Codec ID : A_AAC-2 Duration : 45 min 52 s Bit rate : 125 kb/s Channel(s) : 2 channels Channel layout : L R Sampling rate : 48.0 kHz Frame rate : 46.875 FPS (1024 SPF) Compression mode : Lossy Stream size : 41.1 MiB (3%) Language : Japanese Default : Yes Forced : No ```

File list

They announced an extended version of Nemesis on Hulu (with additional scenes not shown on TV), will you be able to upload it as well? m(_ _)m