[MagicStar] Nemesis EP01 [WEBDL] [1080p] [HULU] [JPN_SUB]

Category:
Date:
2021-04-23 10:55 UTC
Submitter:
Seeders:
15
Information:
Leechers:
2
File size:
1.3 GiB
Completed:
947
Info hash:
f771cd32c8e4f8a9c3dcf404dcbcee824dc827f5
HD 1080p from HULU JAPAN. ![alt text](https://i.ibb.co/d2QrwvD/bd3c255f-70db-4b2f-9c23-ff8af7150f4c.jpg) ![alt text](https://i.ibb.co/wQTwZW5/Nemesis-EP01-1080p-HULU-WEB-DL-AAC2-0-H-264-Magic-Star-mkv.jpg) ``` General Unique ID : 328369964409563834036843856472059855589 (0xF709C135F1BEE8A78E2946CB14DAC2E5) Complete name : Nemesis.EP01.1080p.HULU.WEB-DL.AAC2.0.H.264-MagicStar.mkv Format : Matroska Format version : Version 4 File size : 1.29 GiB Duration : 45 min 19 s Overall bit rate : 4 071 kb/s Encoded date : UTC 2021-04-23 10:46:11 Writing application : mkvmerge v52.0.0 ('Secret For The Mad') 64-bit Writing library : libebml v1.4.1 + libmatroska v1.6.2 Cover : Yes Attachments : cover.png Video ID : 1 Format : AVC Format/Info : Advanced Video Codec Format profile : High@L4 Format settings : CABAC / 4 Ref Frames Format settings, CABAC : Yes Format settings, Reference fra : 4 frames Codec ID : V_MPEG4/ISO/AVC Duration : 45 min 19 s Bit rate : 3 942 kb/s Width : 1 920 pixels Height : 1 080 pixels Display aspect ratio : 16:9 Frame rate mode : Constant Frame rate : 29.970 (29970/1000) FPS Original frame rate : 29.970 (30000/1001) FPS Color space : YUV Chroma subsampling : 4:2:0 Bit depth : 8 bits Scan type : Progressive Bits/(Pixel*Frame) : 0.063 Stream size : 1.25 GiB (97%) Default : Yes Forced : No Color range : Limited Color primaries : BT.709 Transfer characteristics : BT.709 Matrix coefficients : BT.709 Audio ID : 2 Format : AAC LC Format/Info : Advanced Audio Codec Low Complexity Codec ID : A_AAC-2 Duration : 45 min 19 s Bit rate : 125 kb/s Channel(s) : 2 channels Channel layout : L R Sampling rate : 48.0 kHz Frame rate : 46.875 FPS (1024 SPF) Compression mode : Lossy Stream size : 40.6 MiB (3%) Language : Japanese Default : Yes Forced : No ```

File list

Thank you so much for HULU rips! The quality is amazing!
I don't think they're RIPS, they're DLs, but yeah!