[MagicStar] Koi wa Deep ni EP02 [WEBDL] [1080p] [HULU]

Category:
Date:
2021-04-23 10:17 UTC
Submitter:
Seeders:
9
Information:
Leechers:
1
File size:
1.5 GiB
Completed:
1106
Info hash:
0d5b3531de606cba4ab9af0030b680391dae9351
HD 1080p from HULU JAPAN. ![alt text](https://i.ibb.co/hC4pvxq/f07b7307-f718-4c33-bc84-126373910bbb.jpg) ![alt text](https://i.ibb.co/514WNnP/Koi-wa-Deep-ni-EP02-1080p-HULU-WEB-DL-AAC2-0-H-264-Magic-Star-mkv.jpg) ``` General Unique ID : 297590938987790420836329537738635057640 (0xDFE1EE183F672A77871E632F7A7D99E8) Complete name : Koi.wa.Deep.ni.EP02.1080p.HULU.WEB-DL.AAC2.0.H.264-MagicStar.mkv Format : Matroska Format version : Version 4 File size : 1.47 GiB Duration : 51 min 34 s Overall bit rate : 4 075 kb/s Encoded date : UTC 2021-04-23 10:09:56 Writing application : mkvmerge v52.0.0 ('Secret For The Mad') 64-bit Writing library : libebml v1.4.1 + libmatroska v1.6.2 Cover : Yes Attachments : cover.png Video ID : 1 Format : AVC Format/Info : Advanced Video Codec Format profile : High@L4 Format settings : CABAC / 4 Ref Frames Format settings, CABAC : Yes Format settings, Reference fra : 4 frames Codec ID : V_MPEG4/ISO/AVC Duration : 51 min 33 s Bit rate : 3 947 kb/s Width : 1 920 pixels Height : 1 080 pixels Display aspect ratio : 16:9 Frame rate mode : Constant Frame rate : 29.970 (29970/1000) FPS Original frame rate : 29.970 (30000/1001) FPS Color space : YUV Chroma subsampling : 4:2:0 Bit depth : 8 bits Scan type : Progressive Bits/(Pixel*Frame) : 0.064 Stream size : 1.42 GiB (97%) Default : Yes Forced : No Color range : Limited Color primaries : BT.709 Transfer characteristics : BT.709 Matrix coefficients : BT.709 Audio ID : 2 Format : AAC LC Format/Info : Advanced Audio Codec Low Complexity Codec ID : A_AAC-2 Duration : 51 min 34 s Bit rate : 125 kb/s Channel(s) : 2 channels Channel layout : L R Sampling rate : 48.0 kHz Frame rate : 46.875 FPS (1024 SPF) Compression mode : Lossy Stream size : 46.2 MiB (3%) Language : Japanese Default : Yes Forced : No ```

File list

Thank you so much. It will be pleasure from now on.