[MagicStar] Koi wa Deep ni EP01 [WEBDL] [1080p] [HULU]

Category:
Date:
2021-04-23 10:15 UTC
Submitter:
Seeders:
6
Information:
Leechers:
2
File size:
1.5 GiB
Completed:
780
Info hash:
fa9106cd3bf4a7e5352829695852fc03a7893523
HD 1080p from HULU JAPAN. ![alt text](https://i.ibb.co/hC4pvxq/f07b7307-f718-4c33-bc84-126373910bbb.jpg) ![alt text](https://i.ibb.co/QKJnnv3/Koi-wa-Deep-ni-EP01-1080p-HULU-WEB-DL-AAC2-0-H-264-Magic-Star-mkv.jpg) ``` General Unique ID : 106301066474880449933971374594531124964 (0x4FF8D73867C3B98E99E9C83E18F1E6E4) Complete name : Koi.wa.Deep.ni.EP01.1080p.HULU.WEB-DL.AAC2.0.H.264-MagicStar.mkv Format : Matroska Format version : Version 4 File size : 1.47 GiB Duration : 51 min 39 s Overall bit rate : 4 077 kb/s Encoded date : UTC 2021-04-23 10:09:12 Writing application : mkvmerge v52.0.0 ('Secret For The Mad') 64-bit Writing library : libebml v1.4.1 + libmatroska v1.6.2 Cover : Yes Attachments : cover.png Video ID : 1 Format : AVC Format/Info : Advanced Video Codec Format profile : High@L4 Format settings : CABAC / 4 Ref Frames Format settings, CABAC : Yes Format settings, Reference fra : 4 frames Codec ID : V_MPEG4/ISO/AVC Duration : 51 min 38 s Bit rate : 3 949 kb/s Width : 1 920 pixels Height : 1 080 pixels Display aspect ratio : 16:9 Frame rate mode : Constant Frame rate : 29.970 (29970/1000) FPS Original frame rate : 29.970 (30000/1001) FPS Color space : YUV Chroma subsampling : 4:2:0 Bit depth : 8 bits Scan type : Progressive Bits/(Pixel*Frame) : 0.064 Stream size : 1.42 GiB (97%) Default : Yes Forced : No Color range : Limited Color primaries : BT.709 Transfer characteristics : BT.709 Matrix coefficients : BT.709 Audio ID : 2 Format : AAC LC Format/Info : Advanced Audio Codec Low Complexity Codec ID : A_AAC-2 Duration : 51 min 39 s Bit rate : 125 kb/s Channel(s) : 2 channels Channel layout : L R Sampling rate : 48.0 kHz Frame rate : 46.875 FPS (1024 SPF) Compression mode : Lossy Stream size : 46.3 MiB (3%) Language : Japanese Default : Yes Forced : No ```

File list

anyone else subs to this?