[MagicStar] Shinkaishaku Sangokushi 2020 [WEBDL] [1080p] [AMZN]

Category:
Date:
2021-04-20 16:55 UTC
Submitter:
Seeders:
7
Information:
Leechers:
3
File size:
6.5 GiB
Completed:
1312
Info hash:
b115977f7ab09609ff104f3048b60f940029bf83
HD 1080p from Prime Video. ![alt text](https://i.ibb.co/b2bHrpT/8e2b9993-7d45-4dc6-98d1-7bf8069f06f8.jpg) ![alt text](https://i.ibb.co/KGxdgnH/Shinkaishaku-Sangokushi-2020-1080p-AMZN-WEB-DL-DDP5-1-H-264-Magic-Star-mkv.jpg) ``` General Unique ID : 80463785026504183710209273387178296100 (0x3C88C2E4B23EDDE9A780CD269B6C8324) Complete name : Shinkaishaku.Sangokushi.2020.1080p.AMZN.WEB-DL.DDP5.1.H.264-MagicStar.mkv Format : Matroska Format version : Version 4 File size : 6.51 GiB Duration : 1 h 53 min Overall bit rate : 8 186 kb/s Encoded date : UTC 2021-04-20 15:50:34 Writing application : mkvmerge v50.0.0 ('Awakenings') 64-bit Writing library : libebml v1.4.0 + libmatroska v1.6.2 Cover : Yes Attachments : cover.png Video ID : 1 Format : AVC Format/Info : Advanced Video Codec Format profile : High@L4 Format settings : CABAC / 4 Ref Frames Format settings, CABAC : Yes Format settings, Reference fra : 4 frames Codec ID : V_MPEG4/ISO/AVC Duration : 1 h 53 min Bit rate : 7 543 kb/s Width : 1 920 pixels Height : 1 040 pixels Display aspect ratio : 1.85:1 Frame rate mode : Constant Frame rate : 23.976 (24000/1001) FPS Color space : YUV Chroma subsampling : 4:2:0 Bit depth : 8 bits Scan type : Progressive Bits/(Pixel*Frame) : 0.158 Stream size : 6.00 GiB (92%) Default : Yes Forced : No Color range : Limited Color primaries : BT.709 Transfer characteristics : BT.709 Matrix coefficients : BT.709 Audio ID : 2 Format : E-AC-3 Format/Info : Enhanced AC-3 Commercial name : Dolby Digital Plus Codec ID : A_EAC3 Duration : 1 h 53 min Bit rate mode : Constant Bit rate : 640 kb/s Channel(s) : 6 channels Channel layout : L R C LFE Ls Rs Sampling rate : 48.0 kHz Frame rate : 31.250 FPS (1536 SPF) Compression mode : Lossy Stream size : 521 MiB (8%) Language : Japanese Service kind : Complete Main Default : Yes Forced : No ```

File list

can you please upload Anone?
Thanks for the upload!
Thank you so much. It will be pleasure from now on.