[JimmyThicc] Ristorante Paradiso [WEBDL-1080p]

Category:
Date:
2021-04-15 16:22 UTC
Submitter:
Seeders:
12
Information:
Leechers:
1
File size:
4.4 GiB
Completed:
546
Info hash:
18cb236500c1d61477c1345aa9ea6fae1a65c34f
[![external-content-duckduckgo-com.jpg](https://i.postimg.cc/2y0vNjhD/external-content-duckduckgo-com.jpg)](https://postimg.cc/y3SWFHLQ) # Synopsis " Nicoletta travels to Italy from Japan to meet her estranged mother who she has not seen since she was a young child. Once there, Nicoletta becomes immersed working in her stepfather's restaurant and the lives of the other workers. Everything is fine so long as she does not reveal who she really is and why she is in Italy. " # Technical stuff Video source: https://nyaa.si/view/992073 Sub source: I forgot lol Video info: General Unique ID : 105977433131421758444729832625183650110 (0x4FBA82DD542EFAE2318604441DBFF13E) Complete name : C:\Users\REDACTED\Desktop\Ristorante Paradiso\Ristorante Paradiso - S01E01.mkv Format : Matroska Format version : Version 4 / Version 2 File size : 401 MiB Duration : 22 min 32 s Overall bit rate mode : Variable Overall bit rate : 2 490 kb/s Encoded date : UTC 2021-03-31 23:53:58 Writing application : mkvmerge v55.0.0 ('Waiting For Space') 64-bit Writing library : libebml v1.4.2 + libmatroska v1.6.4 Video ID : 1 Format : AVC Format/Info : Advanced Video Codec Format profile : Main@L4 Format settings : CABAC / 3 Ref Frames Format settings, CABAC : Yes Format settings, Reference fra : 3 frames Codec ID : V_MPEG4/ISO/AVC Duration : 22 min 32 s Bit rate mode : Variable Bit rate : 2 370 kb/s Maximum bit rate : 3 555 kb/s Width : 1 920 pixels Height : 1 080 pixels Display aspect ratio : 16:9 Frame rate mode : Constant Frame rate : 23.976 (24000/1001) FPS Color space : YUV Chroma subsampling : 4:2:0 Bit depth : 8 bits Scan type : Progressive Bits/(Pixel*Frame) : 0.048 Stream size : 380 MiB (95%) Writing library : x264 core 118 Encoding settings : cabac=1 / ref=3 / deblock=1:0:0 / analyse=0x1:0x111 / me=umh / subme=10 / psy=1 / psy_rd=1.00:0.00 / mixed_ref=1 / me_range=24 / chroma_me=1 / trellis=2 / 8x8dct=0 / cqm=0 / deadzone=21,11 / fast_pskip=1 / chroma_qp_offset=-2 / threads=8 / sliced_threads=0 / nr=0 / decimate=1 / interlaced=0 / bluray_compat=0 / constrained_intra=0 / bframes=2 / b_pyramid=0 / b_adapt=2 / b_bias=0 / direct=3 / weightb=1 / open_gop=0 / weightp=2 / keyint=48 / keyint_min=25 / scenecut=0 / intra_refresh=0 / rc_lookahead=0 / rc=2pass / mbtree=1 / bitrate=2370 / ratetol=1.0 / qcomp=0.50 / qpmin=6 / qpmax=51 / qpstep=4 / cplxblur=20.0 / qblur=0.5 / vbv_maxrate=3555 / vbv_bufsize=4740 / nal_hrd=vbr / ip_ratio=1.40 / aq=1:1.00 Default : Yes Forced : No Audio ID : 2 Format : E-AC-3 Format/Info : Enhanced AC-3 Commercial name : Dolby Digital Plus Codec ID : A_EAC3 Duration : 22 min 32 s Bit rate mode : Constant Bit rate : 128 kb/s Channel(s) : 2 channels Channel layout : L R Sampling rate : 48.0 kHz Frame rate : 31.250 FPS (1536 SPF) Compression mode : Lossy Stream size : 20.6 MiB (5%) Title : Japanese Language : Japanese Service kind : Complete Main Default : Yes Forced : No Text #1 ID : 3 Format : ASS Codec ID : S_TEXT/ASS Codec ID/Info : Advanced Sub Station Alpha Duration : 20 min 41 s Bit rate : 88 b/s Count of elements : 257 Compression mode : Lossless Stream size : 13.4 KiB (0%) Language : English Default : Yes Forced : No Text #2 ID : 4 Format : UTF-8 Codec ID : S_TEXT/UTF8 Codec ID/Info : UTF-8 Plain Text Duration : 22 min 13 s Bit rate : 68 b/s Count of elements : 303 Stream size : 11.2 KiB (0%) Title : Japanese [Full] Language : Japanese Default : No Forced : No

File list

  • Ristorante Paradiso
    • Ristorante Paradiso - S01E01.mkv (401.4 MiB)
    • Ristorante Paradiso - S01E02.mkv (421.1 MiB)
    • Ristorante Paradiso - S01E03.mkv (401.1 MiB)
    • Ristorante Paradiso - S01E04.mkv (401.0 MiB)
    • Ristorante Paradiso - S01E05.mkv (401.6 MiB)
    • Ristorante Paradiso - S01E06.mkv (401.6 MiB)
    • Ristorante Paradiso - S01E07.mkv (401.0 MiB)
    • Ristorante Paradiso - S01E08.mkv (400.8 MiB)
    • Ristorante Paradiso - S01E09.mkv (460.7 MiB)
    • Ristorante Paradiso - S01E10.mkv (401.7 MiB)
    • Ristorante Paradiso - S01E11.mkv (460.9 MiB)
o shid now if only this came out years ago
thanks alot this a rare anime
Thank you Jimmy!
Is this better than Raw4u's upload in 2009? https://nyaa.si/view/77568 seems to have comparable seeders
I’m seeding this. if anyone needs it, contact me at twttr (same username)