Another [BD][2.0][1080p][Eng Dub][HEVC]

Category:
Date:
2021-04-13 10:10 UTC
Submitter:
Seeders:
2
File size:
1.6 GiB
Completed:
51
Info hash:
ecafc176859369a0a48a634784f96b9299267de7
Video:- HEVC MA10@4.0 Audio :- Opus @ 96kb/s Full Subs As Always Video ID : 1 Format : HEVC Format/Info : High Efficiency Video Coding Format profile : Main 10@L4@Main Codec ID : V_MPEGH/ISO/HEVC Duration : 24 min 41 s Bit rate : 527 kb/s Width : 1 920 pixels Height : 1 080 pixels Display aspect ratio : 16:9 Frame rate mode : Constant Frame rate : 23.976 (23976/1000) FPS Original frame rate : 23.976 (24000/1001) FPS Color space : YUV Chroma subsampling : 4:2:0 Bit depth : 10 bits Bits/(Pixel*Frame) : 0.011 Stream size : 93.1 MiB (79%) Title : x265 10b Writing library : x265 2.9:[Windows][GCC 8.2.0][64 bit] 10bit Encoding settings : cpuid=1111039 / frame-threads=3 / numa-pools=8 / wpp / no-pmode / no-pme / no-psnr / no-ssim / log-level=2 / input-csp=1 / input-res=1920x1080 / interlace=0 / total-frames=0 / level-idc=0 / high-tier=1 / uhd-bd=0 / ref=3 / no-allow-non-conformance / no-repeat-headers / annexb / no-aud / no-hrd / info / hash=0 / no-temporal-layers / open-gop / min-keyint=24 / keyint=240 / gop-lookahead=0 / bframes=4 / b-adapt=2 / b-pyramid / bframe-bias=0 / rc-lookahead=20 / lookahead-slices=6 / scenecut=40 / radl=0 / no-intra-refresh / ctu=64 / min-cu-size=8 / no-rect / no-amp / max-tu-size=32 / tu-inter-depth=1 / tu-intra-depth=1 / limit-tu=0 / rdoq-level=0 / dynamic-rd=0.00 / no-ssim-rd / signhide / no-tskip / nr-intra=0 / nr-inter=0 / no-constrained-intra / strong-intra-smoothing / max-merge=2 / limit-refs=3 / no-limit-modes / me=1 / subme=2 / merange=57 / temporal-mvp / weightp / no-weightb / no-analyze-src-pics / deblock=0:0 / sao / no-sao-non-deblock / rd=3 / no-early-skip / rskip / no-fast-intra / no-tskip-fast / no-cu-lossless / no-b-intra / no-splitrd-skip / rdpenalty=0 / psy-rd=2.00 / psy-rdoq=0.00 / no-rd-refine / no-lossless / cbqpoffs=0 / crqpoffs=0 / rc=crf / crf=23.0 / qcomp=0.60 / qpstep=4 / stats-write=0 / stats-read=0 / ipratio=1.40 / pbratio=1.30 / aq-mode=1 / aq-strength=1.00 / cutree / zone-count=0 / no-strict-cbr / qg-size=32 / no-rc-grain / qpmax=69 / qpmin=0 / no-const-vbv / sar=1 / overscan=0 / videoformat=5 / range=0 / colorprim=1 / transfer=1 / colormatrix=1 / chromaloc=0 / display-window=0 / max-cll=0,0 / min-luma=0 / max-luma=1023 / log2-max-poc-lsb=8 / vui-timing-info / vui-hrd-info / slices=1 / no-opt-qp-pps / no-opt-ref-list-length-pps / no-multi-pass-opt-rps / scenecut-bias=0.05 / no-opt-cu-delta-qp / no-aq-motion / no-hdr / no-hdr-opt / no-dhdr10-opt / no-idr-recovery-sei / analysis-reuse-level=5 / scale-factor=0 / refine-intra=0 / refine-inter=0 / refine-mv=0 / no-limit-sao / ctu-info=0 / no-lowpass-dct / refine-mv-type=0 / copy-pic=1 / max-ausize-factor=1.0 / no-dynamic-refine / no-single-sei Default : Yes Forced : No Color range : Limited Color primaries : BT.709 Transfer characteristics : BT.709 Matrix coefficients : BT.709 Audio ID : 2 Format : Opus Codec ID : A_OPUS Duration : 24 min 41 s Bit rate : 113 kb/s Channel(s) : 2 channels Channel layout : L R Sampling rate : 48.0 kHz Frame rate : 50.000 FPS (960 SPF) Compression mode : Lossy Delay relative to video : -7 ms Stream size : 20.0 MiB (17%) Title : Stereo (Opus) Language : English Default : Yes Forced : No Text ID : 3 Format : ASS Codec ID : S_TEXT/ASS Codec ID/Info : Advanced Sub Station Alpha Duration : 24 min 22 s Bit rate : 481 b/s Count of elements : 758 Compression mode : Lossless Stream size : 86.0 KiB (0%) Title : English[Full] Language : English Default : Yes Forced : No Menu 00:00:00.000 : :Prologue 00:00:53.512 : :Opening 00:02:23.268 : :Part A 00:13:53.124 : :Part B 00:23:01.088 : :Ending 00:24:30.177 : :Preview

File list

  • Another
    • Another - 01x01 - Rough Sketch.mkv (115.5 MiB)
    • Another - 01x02 - Blueprint.mkv (118.0 MiB)
    • Another - 01x03 - Bone Work.mkv (134.3 MiB)
    • Another - 01x04 - Put Flesh.mkv (126.9 MiB)
    • Another - 01x05 - Build Limbs.mkv (117.5 MiB)
    • Another - 01x06 - Face to Face.mkv (132.3 MiB)
    • Another - 01x07 - Sphere Joint.mkv (122.7 MiB)
    • Another - 01x08 - Hair Stand.mkv (185.4 MiB)
    • Another - 01x09 - Body Paint.mkv (145.1 MiB)
    • Another - 01x10 - Glass Eye.mkv (129.3 MiB)
    • Another - 01x11 - Makeup.mkv (114.4 MiB)
    • Another - 01x12 - Stand by Oneself.mkv (219.2 MiB)
    • banner.jpg (94.5 KiB)
    • fanart.jpg (259.6 KiB)
    • folder.jpg (331.6 KiB)
    • theme.mp3 (4.3 MiB)
Many thanks for your release. However, we are missing the OVA in your release.