Aoharu x Machinegun (Aoharu x Kikanjuu) (1080p) (BDRip) (Dual Audio)

Category:
Date:
2021-04-11 17:17 UTC
Submitter:
Seeders:
3
Information:
No information.
Leechers:
1
File size:
18.4 GiB
Completed:
102
Info hash:
d5e8f4d97849e8f5e42c4eed9af2fe0030da181a
| |Sources | ------------- |:-------------:| | Video | [Snow-Raws](https://nyaa.si/view/1364077)| | Jp Audio | [Snow-Raws](https://nyaa.si/view/1364077)| | Eng Audio |[Exiled-Destiny](https://nyaa.si/view/1322975) | |Eng Subtitles| [Exiled-Destiny](https://nyaa.si/view/1322975)| General Unique ID : 107577011734865209328213633794714548248 (0x50EE942DBAEE0CDDC589F36017BAB818) Complete name : X:\Upload\Aoharu x Machinegun\Aoharu x Machinegun S01E01 Let's Start This Deathless Death Match.mkv Format : Matroska Format version : Version 4 / Version 2 File size : 1.24 GiB Duration : 24 min 12 s Overall bit rate mode : Variable Overall bit rate : 7 345 kb/s Encoded date : UTC 2021-03-31 19:01:39 Writing application : mkvmerge v55.0.0 ('Waiting For Space') 64-bit Writing library : libebml v1.4.2 + libmatroska v1.6.4 Video ID : 3 Format : HEVC Format/Info : High Efficiency Video Coding Format profile : Main 10@L4@Main Codec ID : V_MPEGH/ISO/HEVC Duration : 24 min 11 s Bit rate : 6 382 kb/s Width : 1 920 pixels Height : 1 080 pixels Display aspect ratio : 16:9 Frame rate mode : Constant Frame rate : 23.976 (24000/1001) FPS Color space : YUV Chroma subsampling : 4:2:0 Bit depth : 10 bits Bits/(Pixel*Frame) : 0.128 Stream size : 1.08 GiB (87%) Writing library : x265 3.1+5-9c5c9cef2a86:[Windows][GCC 9.1.0][64 bit] 10bit Encoding settings : cpuid=1111039 / frame-threads=3 / numa-pools=12 / wpp / no-pmode / no-pme / no-psnr / no-ssim / log-level=2 / input-csp=1 / input-res=1920x1080 / interlace=0 / total-frames=0 / level-idc=0 / high-tier=1 / uhd-bd=0 / ref=4 / no-allow-non-conformance / no-repeat-headers / annexb / no-aud / no-hrd / info / hash=0 / no-temporal-layers / no-open-gop / min-keyint=1 / keyint=324 / gop-lookahead=0 / bframes=8 / b-adapt=2 / b-pyramid / bframe-bias=0 / rc-lookahead=80 / lookahead-slices=0 / scenecut=40 / radl=0 / no-splice / no-intra-refresh / ctu=32 / min-cu-size=8 / no-rect / no-amp / max-tu-size=32 / tu-inter-depth=2 / tu-intra-depth=2 / limit-tu=2 / rdoq-level=2 / dynamic-rd=0.00 / no-ssim-rd / signhide / no-tskip / nr-intra=0 / nr-inter=0 / no-constrained-intra / no-strong-intra-smoothing / max-merge=3 / limit-refs=2 / no-limit-modes / me=3 / subme=4 / merange=57 / temporal-mvp / weightp / no-weightb / no-analyze-src-pics / deblock=-1:-1 / no-sao / no-sao-non-deblock / rd=6 / early-skip / rskip / no-fast-intra / no-tskip-fast / no-cu-lossless / b-intra / no-splitrd-skip / rdpenalty=0 / psy-rd=2.00 / psy-rdoq=0.90 / no-rd-refine / no-lossless / cbqpoffs=-1 / crqpoffs=-1 / rc=crf / crf=15.7 / qcomp=0.65 / qpstep=4 / stats-write=0 / stats-read=0 / ipratio=1.40 / pbratio=1.30 / aq-mode=3 / aq-strength=0.90 / cutree / zone-count=0 / no-strict-cbr / qg-size=32 / no-rc-grain / qpmax=69 / qpmin=0 / no-const-vbv / sar=0 / overscan=0 / videoformat=5 / range=0 / colorprim=2 / transfer=2 / colormatrix=1 / chromaloc=0 / display-window=0cll=0,0 / min-luma=0 / max-luma=1023 / log2-max-poc-lsb=8 / vui-timing-info / vui-hrd-info / slices=1 / opt-qp-pps / opt-ref-list-length-pps / no-multi-pass-opt-rps / scenecut-bias=0.05 / no-opt-cu-delta-qp / no-aq-motion / no-hdr / no-hdr-opt / no-dhdr10-opt / no-idr-recovery-sei / analysis-reuse-level=5 / scale-factor=0 / refine-intra=0 / refine-inter=0 / refine-mv=0 / refine-ctu-distortion=0 / no-limit-sao / ctu-info=0 / no-lowpass-dct / refine-analysis-type=0 / copy-pic=1 / max-ausize-factor=1.0 / no-dynamic-refine / no-single-sei / no-hevc-aq / no-svt / no-field / qp-adaptation-range=1.00 Language : Japanese Default : Yes Forced : No Color range : Limited Matrix coefficients : BT.709 Audio #1 ID : 1 Format : AC-3 Format/Info : Audio Coding 3 Commercial name : Dolby Digital Codec ID : A_AC3 Duration : 24 min 12 s Bit rate mode : Constant Bit rate : 224 kb/s Channel(s) : 2 channels Channel layout : L R Sampling rate : 48.0 kHz Frame rate : 31.250 FPS (1536 SPF) Compression mode : Lossy Delay relative to video : 13 ms Stream size : 38.8 MiB (3%) Language : English Service kind : Complete Main Default : Yes Forced : No Audio #2 ID : 4 Format : FLAC Format/Info : Free Lossless Audio Codec Codec ID : A_FLAC Duration : 24 min 11 s Bit rate mode : Variable Bit rate : 738 kb/s Channel(s) : 2 channels Channel layout : L R Sampling rate : 48.0 kHz Frame rate : 11.719 FPS (4096 SPF) Bit depth : 16 bits Compression mode : Lossless Stream size : 128 MiB (10%) Writing library : libFLAC 1.3.2 (UTC 2017-01-01) Language : Japanese Default : No Forced : No Text ID : 2 Format : ASS Codec ID : S_TEXT/ASS Codec ID/Info : Advanced Sub Station Alpha Duration : 23 min 55 s Bit rate : 186 b/s Count of elements : 444 Compression mode : Lossless Stream size : 32.6 KiB (0%) Language : English Default : No Forced : No Menu 00:00:00.000 : ja: 00:01:30.840 : ja: 00:12:46.849 : ja: 00:22:10.829 : ja: 00:23:40.836 : ja:

File list

  • Aoharu x Machinegun
    • Aoharu x Machinegun S00E01 Battle of the Beasts!.mkv (1.5 GiB)
    • Aoharu x Machinegun S01E01 Let's Start This Deathless Death Match.mkv (1.2 GiB)
    • Aoharu x Machinegun S01E02 Didn't I Tell You I Don't Need Friends.mkv (1.2 GiB)
    • Aoharu x Machinegun S01E03 We'll Become the Greatest Partners.mkv (1.2 GiB)
    • Aoharu x Machinegun S01E04 He's Not Cut Out for That Tournament.mkv (1.3 GiB)
    • Aoharu x Machinegun S01E05 I Don't Want to Leave the Team!.mkv (1.5 GiB)
    • Aoharu x Machinegun S01E06 The Storm Is Coming.mkv (1.4 GiB)
    • Aoharu x Machinegun S01E07 We'll Crush That Hope.mkv (1.7 GiB)
    • Aoharu x Machinegun S01E08 What Controls Your Mind Now.mkv (2.0 GiB)
    • Aoharu x Machinegun S01E09 That's What Makes Me Cool.mkv (1.1 GiB)
    • Aoharu x Machinegun S01E10 I Want to Fight With These People.mkv (1.1 GiB)
    • Aoharu x Machinegun S01E11 Let's Do Something Fun.mkv (1.5 GiB)
    • Aoharu x Machinegun S01E12 I Won't Yield!.mkv (1.5 GiB)