Million Arthur (1080p) (BDRip) (Dual Audio)

Category:
Date:
2021-04-11 17:16 UTC
Submitter:
Seeders:
4
Information:
No information.
Leechers:
1
File size:
23.0 GiB
Completed:
96
Info hash:
9d7b5e3d920aa62a1388a74a3d60c8a13c58d383
| |Sources | ------------- |:-------------:| | Video | [Moozzi2](https://nyaa.si/view/1181099)| | Jp Audio | [Moozzi2](https://nyaa.si/view/1181099)| | Eng Audio | [Golumpa](https://nyaa.si/user/Golumpa?f=0&c=0_0&q=Million+Arthur)| |Eng Subtitles S01|[RyuujiTK](https://nyaa.si/view/1106647) | |Eng Subtitles S02| [Erai-raws](https://nyaa.si/view/1181760)| | Related Stuff| | ------------- | | [OVA](https://nyaa.si/view/1293166) | General Unique ID : 70609141459208126201230281719242788465 (0x351ED373F96729025DCFA3E8F1FF8E71) Complete name : X:\Upload\Million Arthur\Season 1\Million Arthur S01E01 Past Rebellion.mkv Format : Matroska Format version : Version 4 / Version 2 File size : 1.14 GiB Duration : 23 min 41 s Overall bit rate mode : Variable Overall bit rate : 6 921 kb/s Encoded date : UTC 2021-04-10 16:10:14 Writing application : mkvmerge v55.0.0 ('Waiting For Space') 64-bit Writing library : libebml v1.4.2 + libmatroska v1.6.4 Video ID : 1 Format : AVC Format/Info : Advanced Video Codec Format profile : High@L5 Format settings : CABAC / 5 Ref Frames Format settings, CABAC : Yes Format settings, Reference fra : 5 frames Codec ID : V_MPEG4/ISO/AVC Duration : 23 min 41 s Bit rate : 5 900 kb/s Width : 1 920 pixels Height : 1 080 pixels Display aspect ratio : 16:9 Frame rate mode : Constant Frame rate : 23.976 (24000/1001) FPS Color space : YUV Chroma subsampling : 4:2:0 Bit depth : 8 bits Scan type : Progressive Bits/(Pixel*Frame) : 0.119 Stream size : 999 MiB (85%) Writing library : x264 core 157 r2935 545de2f Encoding settings : cabac=1 / ref=5 / deblock=1:1:1 / analyse=0x3:0x113 / me=umh / subme=9 / psy=1 / psy_rd=1.00:0.00 / mixed_ref=1 / me_range=32 / chroma_me=1 / trellis=1 / 8x8dct=1 / cqm=0 / deadzone=21,11 / fast_pskip=0 / chroma_qp_offset=-2 / threads=34 / lookahead_threads=2 / sliced_threads=0 / nr=0 / decimate=1 / interlaced=0 / bluray_compat=0 / stitchable=1 / constrained_intra=0 / bframes=3 / b_pyramid=2 / b_adapt=2 / b_bias=0 / direct=1 / weightb=1 / open_gop=0 / weightp=1 / keyint=240 / keyint_min=23 / scenecut=40 / intra_refresh=0 / rc_lookahead=40 / rc=crf / mbtree=1 / crf=16.0 / qcomp=0.65 / qpmin=0 / qpmax=69 / qpstep=4 / ip_ratio=1.40 / aq=1:1.00 Language : Japanese Default : Yes Forced : No Audio #1 ID : 2 Format : FLAC Format/Info : Free Lossless Audio Codec Codec ID : A_FLAC Duration : 23 min 41 s Bit rate mode : Variable Bit rate : 781 kb/s Channel(s) : 2 channels Channel layout : L R Sampling rate : 48.0 kHz Frame rate : 11.719 FPS (4096 SPF) Bit depth : 16 bits Compression mode : Lossless Stream size : 132 MiB (11%) Writing library : libFLAC 1.3.2 (UTC 2017-01-01) Language : Japanese Default : Yes Forced : No Audio #2 ID : 4 Format : AAC LC Format/Info : Advanced Audio Codec Low Complexity Codec ID : A_AAC-2 Duration : 22 min 10 s Bit rate : 253 kb/s Channel(s) : 2 channels Channel layout : L R Sampling rate : 48.0 kHz Frame rate : 46.875 FPS (1024 SPF) Compression mode : Lossy Delay relative to video : 19 ms Stream size : 40.2 MiB (3%) Language : English Default : No Forced : No Text ID : 3 Format : ASS Codec ID : S_TEXT/ASS Codec ID/Info : Advanced Sub Station Alpha Duration : 23 min 8 s Bit rate : 146 b/s Count of elements : 369 Compression mode : Lossless Stream size : 24.8 KiB (0%) Default : Yes Forced : No

File list

  • Million Arthur
    • Season 1
      • Million Arthur S01E01 Past Rebellion.mkv (1.1 GiB)
      • Million Arthur S01E02 The Forbidden Sacred Sword.mkv (956.8 MiB)
      • Million Arthur S01E03 Iron Fist of Anger.mkv (1.1 GiB)
      • Million Arthur S01E04 From the Sanctuary with Love.mkv (1.1 GiB)
      • Million Arthur S01E05 Rotten Art.mkv (956.4 MiB)
      • Million Arthur S01E06 Star Fishing Arthur.mkv (1.2 GiB)
      • Million Arthur S01E07 Rose Buds.mkv (1004.6 MiB)
      • Million Arthur S01E08 Summon a Magical Girl.mkv (1.3 GiB)
      • Million Arthur S01E09 In the Brightest Light.mkv (952.3 MiB)
      • Million Arthur S01E10 Despair for the Future.mkv (989.0 MiB)
    • Season 2
      • Million Arthur S02E01 The Legend Fairy.mkv (1000.7 MiB)
      • Million Arthur S02E02 Failure as a Leader.mkv (964.2 MiB)
      • Million Arthur S02E03 Goodbye, Yama.mkv (953.7 MiB)
      • Million Arthur S02E04 Shivering Secret Hot Springs.mkv (1.1 GiB)
      • Million Arthur S02E05 I Love Tasty Stuff.mkv (910.0 MiB)
      • Million Arthur S02E06 Utahime is Here! Rah! Rah! Rah!.mkv (899.0 MiB)
      • Million Arthur S02E07 Captain Dancho.mkv (1.1 GiB)
      • Million Arthur S02E08 Altered History.mkv (855.9 MiB)
      • Million Arthur S02E09 Stolen Excalibur.mkv (1.1 GiB)
      • Million Arthur S02E10 Watch out, Little Red Riding Hood.mkv (909.2 MiB)
      • Million Arthur S02E11 The Journey to Combine.mkv (876.9 MiB)
      • Million Arthur S02E12 Demise of Legend.mkv (1.0 GiB)
      • Million Arthur S02E13 Into the Rebel Future.mkv (962.8 MiB)
Thanks for this!!