Blade of the Immortal (Mugen no Juunin) - Season 1 (2008) [720x480] [x264] [DD2.0] [Dual Audio] [BluDragon]

Category:
Date:
2021-04-11 11:44 UTC
Submitter:
Seeders:
1
Information:
No information.
Leechers:
0
File size:
4.5 GiB
Completed:
194
Info hash:
d37c599f9c4293a42deb6c3cf23948c2c9f79608
Hi, it's me again. I decided I'm not gonna upload anymore torrents of 20 gb, 15 gb, (see my last not-so-noble efforts of uploading Dragon Ball from Dragon Box). I'll upload smaller sizes, like, in this case, 4gb. I MAY mainly reupload not-anymore-active torrent files. In this case, Blade of the Immortal is the first on my list. So, this is not a remake, or a re-encode, this is merely a reupload. I''ll seed just long enough for you to do so. So, I beg you, SEED. FOR AS LONG AS YOU CAN! :) Oh, one thing: this is the 2008 anime, NOT the 2019 one. Now, I'm gonna give you the MediaInfo. Mind you, these files are from BlueDragon's encode. I merely downloaded them from Uloz.to (credits go to HokutomexiKen and ONIX for the links), they're not altered in any way: General Unique ID : 183498604147493963262436773781558909097 (0x8A0C8BAF97E599E7B0C0D1CDBA3DD8A9) Complete name : D:\Tom DeLonge\[Official Subs] The Inhabitant of Infinity [RENAMED] [Hard] [XviD] [AVI] [KSN] [WolfPack]\Season 1 [720x480] [x264] [DD2.0] [Dual Audio] [BluDragon]\[BluDragon] Blade of the Immortal - 01 - Criminal.mkv Format : Matroska Format version : Version 2 File size : 384 MiB Duration : 25 min 0 s Overall bit rate : 2 148 kb/s Movie name : [BluDragon] Pokémon the First Movie: Mewtwo Strikes Back Encoded date : UTC 2011-02-16 13:47:43 Writing application : mkvmerge v3.4.0 ('Rapunzel') built on May 15 2010 09:38:20 Writing library : libebml v0.8.0 + libmatroska v0.9.0 Video ID : 1 Format : AVC Format/Info : Advanced Video Codec Format profile : High@L4.1 Format settings : CABAC / 4 Ref Frames Format settings, CABAC : Yes Format settings, Reference frames : 4 frames Codec ID : V_MPEG4/ISO/AVC Duration : 25 min 0 s Bit rate : 1 465 kb/s Width : 720 pixels Height : 480 pixels Display aspect ratio : 16:9 Original display aspect ratio : 3:2 Frame rate mode : Constant Frame rate : 23.976 (24000/1001) FPS Color space : YUV Chroma subsampling : 4:2:0 Bit depth : 8 bits Scan type : Progressive Bits/(Pixel*Frame) : 0.177 Stream size : 262 MiB (68%) Title : 01: Criminal Writing library : x264 core 112 r1867 22bfd31 Encoding settings : cabac=1 / ref=4 / deblock=1:1:2 / analyse=0x3:0x113 / me=umh / subme=10 / psy=1 / psy_rd=1.00:0.00 / mixed_ref=1 / me_range=16 / chroma_me=1 / trellis=2 / 8x8dct=1 / cqm=0 / deadzone=21,11 / fast_pskip=1 / chroma_qp_offset=-2 / threads=6 / sliced_threads=0 / nr=0 / decimate=0 / interlaced=0 / constrained_intra=0 / bframes=3 / b_pyramid=2 / b_adapt=1 / b_bias=0 / direct=3 / weightb=1 / open_gop=0 / weightp=2 / keyint=250 / keyint_min=23 / scenecut=40 / intra_refresh=0 / rc_lookahead=40 / rc=crf / mbtree=1 / crf=14.0 / qcomp=0.60 / qpmin=10 / qpmax=51 / qpstep=4 / vbv_maxrate=38000 / vbv_bufsize=30000 / crf_max=0.0 / nal_hrd=none / ip_ratio=1.40 / aq=1:1.00 Language : Japanese Default : Yes Forced : No Audio #1 ID : 2 Format : AC-3 Format/Info : Audio Coding 3 Commercial name : Dolby Digital Codec ID : A_AC3 Duration : 25 min 0 s Bit rate mode : Constant Bit rate : 192 kb/s Channel(s) : 2 channels Channel layout : L R Sampling rate : 48.0 kHz Frame rate : 31.250 FPS (1536 SPF) Compression mode : Lossy Stream size : 34.3 MiB (9%) Title : Dolby Digital 2.0 Language : English Service kind : Complete Main Default : Yes Forced : No Audio #2 ID : 3 Format : AC-3 Format/Info : Audio Coding 3 Commercial name : Dolby Digital Codec ID : A_AC3 Duration : 25 min 0 s Bit rate mode : Constant Bit rate : 448 kb/s Channel(s) : 2 channels Channel layout : L R Sampling rate : 48.0 kHz Frame rate : 31.250 FPS (1536 SPF) Compression mode : Lossy Stream size : 80.1 MiB (21%) Title : Dolby Digital 2.0 Language : Japanese Service kind : Complete Main Default : No Forced : No Text #1 ID : 4 Format : VobSub Muxing mode : zlib Codec ID : S_VOBSUB Codec ID/Info : Picture based subtitle format used on DVDs Title : VobSub: Signs Language : English Default : Yes Forced : No Text #2 ID : 5 Format : VobSub Muxing mode : zlib Codec ID : S_VOBSUB Codec ID/Info : Picture based subtitle format used on DVDs Title : VobSub: Dialogue Language : English Default : No Forced : No DISCLAIMER: I will do my best to seed as long as I can for you to have the complete file, but as soon as enough of you do, I'LL STOP or my computer will crash! So, SEED AS LONG AS YOU CAN!

File list

  • Season 1 [720x480] [x264] [DD2.0] [Dual Audio [BluDragon]
    • [BluDragon] Blade of the Immortal - 01 - Criminal.mkv (384.2 MiB)
    • [BluDragon] Blade of the Immortal - 02 - Conquest.mkv (398.9 MiB)
    • [BluDragon] Blade of the Immortal - 03 - Love Song.mkv (360.2 MiB)
    • [BluDragon] Blade of the Immortal - 04 - Genius.mkv (349.5 MiB)
    • [BluDragon] Blade of the Immortal - 05 - The Shogunate aka. Army Man.mkv (347.5 MiB)
    • [BluDragon] Blade of the Immortal - 06 - Cries of the Bugs.mkv (337.2 MiB)
    • [BluDragon] Blade of the Immortal - 07 - 3 ways.mkv (352.3 MiB)
    • [BluDragon] Blade of the Immortal - 08 - Strumming.mkv (337.4 MiB)
    • [BluDragon] Blade of the Immortal - 09 - Dream Shot.mkv (359.7 MiB)
    • [BluDragon] Blade of the Immortal - 10 - Changing Face.mkv (349.2 MiB)
    • [BluDragon] Blade of the Immortal - 11 - Feathers.mkv (339.5 MiB)
    • [BluDragon] Blade of the Immortal - 12 - Nemesis of Rin.mkv (352.5 MiB)
    • [BluDragon] Blade of the Immortal - 13 - Wind.mkv (346.6 MiB)
> Movie name : [BluDragon] Pokémon the First Movie: Mewtwo Strikes Back # hmmm

luigirovatti (uploader)

User
I know, right? xD I assure you, if you download them, you'll find they are exactly as specified in the title.
> Red entries (remake) are torrents that match any of the following: Reupload of original release using non-original file names.