Digimon.Tamers.Battle.of.Adventurers.2001.1080p.BluRay.DUBBED.AAC.2.0.x265-VeloEncodes

Category:
Date:
2021-04-11 10:04 UTC
Submitter:
Seeders:
3
Information:
Leechers:
0
File size:
3.0 GiB
Completed:
193
Info hash:
64347077c875c20df50859436d40aed729e41961
![](https://i.imgur.com/TMGebm1.png) ![](https://i.imgur.com/hrtFLIT.jpg) The first *Digimon Tamers* movie, in full HD, dubbed-over-raw. If you prefer higher quality, I am releasing a dual-audio encode with TrueHD Japanese audio and almost double the bitrate later. BFT and I are still hard at work on the second Tamers supercut, but this movie takes place within the timeline of the first supercut, so I had to get it out there. **MediaInfo:** ``` General Complete name : E:\Digimon.Tamers.Battle.of.Adventurers.2001.1080p.BluRay.DUBBED.AAC.2.0.x265-VeloEncodes.mp4 Format : MPEG-4 Format profile : Base Media Codec ID : isom (isom/iso2/avc1/mp41) File size : 3.05 GiB Duration : 46 min 6 s Overall bit rate : 9 462 kb/s Writing application : Lavf57.25.100 Video ID : 1 Format : AVC Format/Info : Advanced Video Codec Format profile : Main@L4 Format settings : 2 Ref Frames Format settings, CABAC : No Format settings, Reference : 2 frames Codec ID : avc1 Codec ID/Info : Advanced Video Coding Duration : 46 min 6 s Bit rate : 9 263 kb/s Width : 1 920 pixels Height : 1 080 pixels Display aspect ratio : 16:9 Frame rate mode : Constant Frame rate : 24.000 FPS Color space : YUV Chroma subsampling : 4:2:0 Bit depth : 8 bits Scan type : Progressive Bits/(Pixel*Frame) : 0.186 Stream size : 2.98 GiB (98%) Color range : Full Color primaries : BT.709 Matrix coefficients : BT.709 Codec configuration box : avcC Audio ID : 2 Format : AAC LC Format/Info : Advanced Audio Codec Low Complexity Codec ID : mp4a-40-2 Duration : 46 min 6 s Duration_LastFrame : -10 ms Bit rate mode : Constant Bit rate : 196 kb/s Channel(s) : 2 channels Channel layout : L R Sampling rate : 48.0 kHz Frame rate : 46.875 FPS (1024 SPF) Compression mode : Lossy Stream size : 64.7 MiB (2%) Default : Yes Alternate group : 1 ``` **Screenshots:** ![](https://i.imgur.com/AFm2iob.jpg) ![](https://i.imgur.com/e3a0sgg.jpg) ![](https://i.imgur.com/S6I6Iic.jpg) ![](https://i.imgur.com/zphrY7j.jpg) ![](https://i.imgur.com/yeEH1Zp.jpg) ![](https://i.imgur.com/A7bW7i2.jpg) ![](https://i.imgur.com/8f6SQzZ.jpg) ![](https://i.imgur.com/v0UvbzN.jpg) ![](https://i.imgur.com/Yq1nJMl.jpg) ![](https://i.imgur.com/WuhAdPL.jpg) ![](https://i.imgur.com/WkOwLW2.jpg) *Enjoy, and don’t forget to seed!* **For more DigiTastic content, join our Telegram channel:** http://t.me/veloencodesreleases **Follow me on Parler:** @basedvelo It’s a new year, and all I ask is that you support me with your kind words of encouragement and continued downloads of my releases.

File list

  • Digimon.Tamers.Battle.of.Adventurers.2001.1080p.BluRay.DUBBED.AAC.2.0.x265-VeloEncodes.mp4 (3.0 GiB)

thecharioteermode (uploader)

User
Thanks so much, guys! <3 I completely forgot about the dual-audio version. Hopefully I can upload that soon. It was on my seedbox, but my provider did a major boo-boo and my data got rekt (again). Thankfully, there was nothing of importance lost that I didn't already have a backup of.
Oh shit! Thank you so much for this!!!
Hey you still alive? taking breaks are fine and dandy just want to make sure you guys are still at it!! lol

thecharioteermode (uploader)

User
@LordFenix yeah dw, the second supercut is up, and the next two volumes of individual episodes should be coming relatively *soon*
@thecharioteermode Are you still working on releases? I really hope so. Youve been doing godly work!!