[BYG-RAWS][伊甸星原 EDENS ZERO/エデンズゼロ][01][1080P][CHS]

Category:
Date:
2021-04-10 17:53 UTC
Submitter:
Anonymous
Seeders:
0
Information:
No information.
Leechers:
1
File size:
219.2 MiB
Completed:
11
Info hash:
67db5eb43143315a965c319c289de5f01bd5d3e9
====详细信息==== ID : 1 Format : HEVC Format/Info : High Efficiency Video Coding Format profile : Main@L4@Main Codec ID : hev1 Codec ID/Info : High Efficiency Video Coding Duration : 23 min 24 s Bit rate : 1 112 kb/s Width : 1 920 pixels Height : 1 080 pixels Display aspect ratio : 16:9 Frame rate mode : Variable Frame rate : 23.976 (23976/1000) FPS Minimum frame rate : 23.974 FPS Maximum frame rate : 23.981 FPS Original frame rate : 23.976 (24000/1001) FPS Color space : YUV Chroma subsampling : 4:2:0 Bit depth : 8 bits Bits/(Pixel*Frame) : 0.022 Stream size : 186 MiB (85%) ID : 2 Format : AAC Format/Info : Advanced Audio Codec Format profile : LC Codec ID : 40 Duration : 23 min 25 s Bit rate mode : Variable Bit rate : 192 kb/s Maximum bit rate : 195 kb/s Channel(s) : 2 channels Channel positions : Front: L R Sampling rate : 44.1 kHz Frame rate : 43.066 FPS (1024 spf) Compression mode : Lossy Stream size : 31.8 MiB (14%) Default : Yes Alternate group : 1

File list

  • Edens Zero 01 H265 1080P.mp4 (219.2 MiB)