Aya to Majo (Earwig and the Witch) [BD Remux 1920x1080 AVC Dual-Audio DTS-HD]

Category:
Date:
2021-04-09 01:18 UTC
Submitter:
Seeders:
1
Information:
No information.
Leechers:
0
File size:
21.5 GiB
Completed:
108
Info hash:
fb14da7279ff73f3f599c71c69f8a797978a603e
Source: US BDMV Uploader Notes: Remux off of my personal USBD. Didn't feel like bothering with an encode for this if you want a smaller file size I'm sure someone else will probably encode it at some point. Mediainfo: >General >Unique ID : 99162674791178745754524402329906129919 (0x4A9A09566603E91C52871AC72F992BFF) >Complete name : Aya to Majo (2020) [BD Remux 1920x1080 AVC Dual-Audio DTS-HD][1C053AED].mkv >Format : Matroska >Format version : Version 4 >File size : 21.5 GiB >Duration : 1 h 22 min >Overall bit rate mode : Variable >Overall bit rate : 37.2 Mb/s >Movie name : Earwig and the Witch >Writing application : mkvmerge v55.0.0 ('Waiting For Space') 64-bit >Writing library : libebml v1.4.2 + libmatroska v1.6.3 > >Video >ID : 1 >Format : AVC >Format/Info : Advanced Video Codec >Format profile : High@L4.1 >Format settings : CABAC / 4 Ref Frames >Format settings, CABAC : Yes >Format settings, Reference frames : 4 frames >Codec ID : V_MPEG4/ISO/AVC >Duration : 1 h 22 min >Bit rate mode : Constant >Bit rate : 30.0 Mb/s >Width : 1 920 pixels >Height : 1 080 pixels >Display aspect ratio : 16:9 >Frame rate mode : Constant >Frame rate : 23.976 (24000/1001) FPS >Color space : YUV >Chroma subsampling : 4:2:0 >Bit depth : 8 bits >Scan type : Progressive >Bits/(Pixel*Frame) : 0.603 >Stream size : 16.8 GiB (78%) >Default : Yes >Forced : No > >Audio #1 >ID : 2 >Format : DTS XLL >Format/Info : Digital Theater Systems >Commercial name : DTS-HD Master Audio >Codec ID : A_DTS >Duration : 1 h 22 min >Bit rate mode : Variable >Bit rate : 4 209 kb/s >Channel(s) : 6 channels >Channel layout : C L R Ls Rs LFE >Sampling rate : 48.0 kHz >Frame rate : 93.750 FPS (512 SPF) >Bit depth : 24 bits >Compression mode : Lossless >Stream size : 2.43 GiB (11%) >Language : Japanese >Default : Yes >Forced : No > >Audio #2 >ID : 3 >Format : DTS XLL >Format/Info : Digital Theater Systems >Commercial name : DTS-HD Master Audio >Codec ID : A_DTS >Duration : 1 h 22 min >Bit rate mode : Variable >Bit rate : 3 959 kb/s >Channel(s) : 6 channels >Channel layout : C L R Ls Rs LFE >Sampling rate : 48.0 kHz >Frame rate : 93.750 FPS (512 SPF) >Bit depth : 24 bits >Compression mode : Lossless >Stream size : 2.29 GiB (11%) >Language : English >Default : No >Forced : No > >Text #1 >ID : 4 >Format : PGS >Muxing mode : zlib >Codec ID : S_HDMV/PGS >Codec ID/Info : Picture based subtitle format used on BDs/HD-DVDs >Duration : 1 h 22 min >Bit rate : 18.2 kb/s >Count of elements : 1508 >Stream size : 10.7 MiB (0%) >Language : English >Default : Yes >Forced : No > >Text #2 >ID : 5 >Format : PGS >Muxing mode : zlib >Codec ID : S_HDMV/PGS >Codec ID/Info : Picture based subtitle format used on BDs/HD-DVDs >Duration : 1 h 22 min >Bit rate : 32.1 kb/s >Count of elements : 2860 >Stream size : 18.9 MiB (0%) >Title : Dubtitles >Language : English >Default : No >Forced : No > >Menu >00:00:00.000 : en:Chapter 01 >00:05:54.353 : en:Chapter 02 >00:11:10.586 : en:Chapter 03 >00:14:51.932 : en:Chapter 04 >00:19:31.753 : en:Chapter 05 >00:22:15.250 : en:Chapter 06 >00:27:30.065 : en:Chapter 07 >00:32:21.898 : en:Chapter 08 >00:37:39.382 : en:Chapter 09 >00:43:01.078 : en:Chapter 10 >00:49:54.950 : en:Chapter 11 >00:57:27.235 : en:Chapter 12 >01:00:35.590 : en:Chapter 13 >01:07:31.297 : en:Chapter 14 >01:12:42.858 : en:Chapter 15 >01:18:41.883 : en:Chapter 16 > >

File list

  • Aya to Majo (2020) [BD Remux 1920x1080 AVC Dual-Audio DTS-HD][1C053AED].mkv (21.5 GiB)
the downfall of studio ghibli.
@glm8892 Are you the uploader for this torrent: https://nyaa.si/view/1364539 (Osamu Tezuka Metropolis メトロポリス (2001))? I need seeders.
Thanks :) Didn't realize this was Studio Ghibli work. I hope Miyazaki's "Final" one will be 2D hand drawn!
I don't give a flying fuck fuck what the reviews say-I love this movie and the english dub is fantastic!!
DTS JAP, thank you =)
@ zrdb Sure, but the only reason everyone gave thisva chance is because it's a Ghibli movie even though it looks appalling.