[KayRips] Mouse (2021) (Season 1) 01-10 [1080p][WEB-DL HEVC x265][Eng-Subs] (Batch)

Category:
Date:
2021-04-08 20:36 UTC
Submitter:
Seeders:
3
Information:
Leechers:
1
File size:
24.2 GiB
Completed:
39
Info hash:
726ed58d7578523c6f1a8bb9cad61549ed2c99fc
DDL on discord https://discord.gg/whtT7vqfKB **Drama :** Mouse / Mauseu / 마우스 **Episodes :** ?? **Country :** South Korea **Genres :** Suspense, Thriller, Mystery, Psychological, Crime **Aired :** Mar 3, 2021 - ? **Aired On :** Wednesday, Thursday **Original Network :** tvN **Duration :** 1 hr. 25 min. **Content Rating :** 18+ Restricted (violence & profanity) **Source :** iQiYi Global (Heavily censored :C) **Available Subtitle :** English A suspenseful story that asks the key question, “What if we could identify psychopaths in advance?” A crazed serial killer’s ruthless murders have left the entire nation gripped with fear, and chaos reigns. Justice-seeking rookie police officer, Jung Ba Reum, comes face to face with the killer. While he survives his dangerous encounter with the psychopath, Jung Ba Reum finds his life completely changing before his eyes.. -*MyDramaList* *Episode 1 Mediainfo* ``` Video ID : 1 Format : HEVC Format/Info : High Efficiency Video Coding Format profile : Main@L4@Main Codec ID : V_MPEGH/ISO/HEVC Duration : 1 h 24 min Bit rate : 4 335 kb/s Width : 1 920 pixels Height : 808 pixels Display aspect ratio : 2.40:1 Frame rate mode : Constant Frame rate : 24.000 FPS Color space : YUV Chroma subsampling : 4:2:0 Bit depth : 8 bits Bits/(Pixel*Frame) : 0.116 Stream size : 2.55 GiB (96%) Default : Yes Forced : No Audio ID : 2 Format : AAC LC Format/Info : Advanced Audio Codec Low Complexity Codec ID : A_AAC-2 Duration : 1 h 24 min Bit rate : 192 kb/s Channel(s) : 2 channels Channel layout : L R Sampling rate : 44.1 kHz Frame rate : 43.066 FPS (1024 SPF) Compression mode : Lossy Stream size : 115 MiB (4%) Language : Korean Default : Yes Forced : No ``` ![alt text](https://i.ibb.co/VmMrZHy/Kay-Rips-Mouse-2021-S01-E01-mkv-20210409-042029-777.png) ![alt text](https://i.ibb.co/Cm9qxWP/Kay-Rips-Mouse-2021-S01-E01-mkv-20210409-042045-065.png) ![alt text](https://i.ibb.co/nLDPVTB/Kay-Rips-Mouse-2021-S01-E01-mkv-20210409-042105-804.png) ![alt text](https://i.ibb.co/n0M9HPm/Kay-Rips-Mouse-2021-S01-E01-mkv-20210409-042117-446.png) ![alt text](https://i.ibb.co/tqtknPP/Kay-Rips-Mouse-2021-S01-E02-mkv-20210409-042241-079.png)

File list

  • Mouse (2021)
    • Season 1
      • [KayRips] Mouse (2021) - S01E01.mkv (2.7 GiB)
      • [KayRips] Mouse (2021) - S01E02.mkv (2.7 GiB)
      • [KayRips] Mouse (2021) - S01E03.mkv (2.6 GiB)
      • [KayRips] Mouse (2021) - S01E04.mkv (2.3 GiB)
      • [KayRips] Mouse (2021) - S01E05.mkv (2.0 GiB)
      • [KayRips] Mouse (2021) - S01E06.mkv (2.6 GiB)
      • [KayRips] Mouse (2021) - S01E07.mkv (2.4 GiB)
      • [KayRips] Mouse (2021) - S01E08.mkv (2.2 GiB)
      • [KayRips] Mouse (2021) - S01E09.mkv (2.1 GiB)
      • [KayRips] Mouse (2021) - S01E10.mkv (2.6 GiB)
Wow! Thanks for picking this up. Probably the best one airing right now.

kayrips (uploader)

User
no problem! but it's unfortunate that iQiYi Global censor gore
I have been watching AppleTor's releases (from TVING), and it's blurred-out there as well. Haven't checked the VIKI, VIU or TV versions yet.

kayrips (uploader)

User
oh it is? I didn't know, I thought it was just iQiYi