[KayRips] Tale of the Nine Tailed (2020) (Season 1) [1080p][NF WEB-DL x264 EAC3][Multi-Subs] (Batch)

Category:
Date:
2021-04-08 18:43 UTC
Submitter:
Seeders:
2
Information:
Leechers:
3
File size:
42.2 GiB
Completed:
25
Info hash:
c117294b54b1191dda119cb2f4c945e537e0db0d
DDL on discord https://discord.gg/whtT7vqfKB **Drama :** Tale of the Nine Tailed / Gumi Ho / Tale of Gumiho / Chasing the Nine-Tailed Fox / Gumihodyeon / The Story of Gumiho / The Tale of the Nine-Tailed Fox / Gumihodi **Episodes :** 16 **Country :** South Korea **Genres :** Action, Suspense, Thriller, Horror, Romance, Fantasy **Aired :** Oct 7, 2020 - Dec 3, 2020 **Aired On :** Wednesday, Thursday **Original Network :** tvN **Duration :** 1 hr. 10 min. **Content Rating :** 15+ - Teens 15 or older **Source :** Netflix **Available Subtitles :** English, Arabic, German, Spanish, French, Indonesian, Japanese, Malay, Portuguese, Thai, Turkish, Vietnamese, Chinese (Simplified), Chinese (Traditional) The mythical nine-tailed fox, or gumiho, Lee Yeon had to settle in the city many centuries ago. Able to transform into human form, he eradicates supernatural beings that threaten the mortal world. His real aim is to find the reincarnation of his lost first love. The talented television producer Nam Ji Ah works in a show that features urban myths. In the past, her parents were involved in a mysterious car accident and disappeared, and she suspects that Lee Yeon might be connected with this accident. The half-brother to Lee Yeon is the captivating Lee Rang. Despite being half-human himself, he harbors a deep-seated contempt for all people. For sport, he will unleash his seductive prowess upon his human-du-jour, by promising to grant them their wishes, only to trick them into paying a hefty price for their earthly desires. -*Lee Cox at MyDramaList* *Episode 1 Mediainfo* ``` Video ID : 1 Format : AVC Format/Info : Advanced Video Codec Format profile : High@L4 Format settings : CABAC / 4 Ref Frames Format settings, CABAC : Yes Format settings, Reference frames : 4 frames Codec ID : V_MPEG4/ISO/AVC Duration : 1 h 5 min Bit rate mode : Variable Bit rate : 5 464 kb/s Maximum bit rate : 20.0 Mb/s Width : 1 920 pixels Height : 1 080 pixels Display aspect ratio : 16:9 Frame rate mode : Constant Frame rate : 23.976 (24000/1001) FPS Color space : YUV Chroma subsampling : 4:2:0 Bit depth : 8 bits Scan type : Progressive Bits/(Pixel*Frame) : 0.110 Stream size : 2.50 GiB (98%) Writing library : x264 core 148 r2722 1b0121b Encoding settings : cabac=1 / ref=4 / deblock=1:0:0 / analyse=0x3:0x111 / me=umh / subme=10 / psy=1 / psy_rd=1.00:0.00 / mixed_ref=1 / me_range=120 / chroma_me=1 / trellis=2 / 8x8dct=1 / cqm=0 / deadzone=21,11 / fast_pskip=1 / chroma_qp_offset=-2 / threads=8 / lookahead_threads=2 / sliced_threads=0 / nr=0 / decimate=1 / interlaced=0 / bluray_compat=0 / stitchable=1 / constrained_intra=0 / bframes=16 / b_pyramid=2 / b_adapt=2 / b_bias=0 / direct=3 / weightb=1 / open_gop=0 / weightp=2 / keyint=240 / keyint_min=121 / scenecut=0 / intra_refresh=0 / rc_lookahead=240 / rc=crf / mbtree=1 / crf=19.0 / qcomp=0.50 / qpmin=6 / qpmax=51 / qpstep=4 / vbv_maxrate=20000 / vbv_bufsize=25000 / crf_max=0.0 / nal_hrd=vbr / filler=0 / ip_ratio=1.40 / aq=1:0.80 Default : Yes Forced : No Audio ID : 2 Format : E-AC-3 Format/Info : Enhanced AC-3 Commercial name : Dolby Digital Plus Codec ID : A_EAC3 Duration : 1 h 5 min Bit rate mode : Constant Bit rate : 128 kb/s Channel(s) : 2 channels Channel layout : L R Sampling rate : 48.0 kHz Frame rate : 31.250 FPS (1536 SPF) Compression mode : Lossy Stream size : 59.9 MiB (2%) Language : Korean Service kind : Complete Main Default : Yes Forced : No ``` ![alt text](https://i.ibb.co/9cQ7247/Kay-Rips-Tale-of-the-Nine-Tailed-2020-S01-E01-mkv-20210409-023855-055.png) ![alt text](https://i.ibb.co/NC5c87Q/Kay-Rips-Tale-of-the-Nine-Tailed-2020-S01-E01-mkv-20210409-023904-575.png) ![alt text](https://i.ibb.co/WnsmV6T/Kay-Rips-Tale-of-the-Nine-Tailed-2020-S01-E01-mkv-20210409-024013-392.png) ![alt text](https://i.ibb.co/MgYjSg9/Kay-Rips-Tale-of-the-Nine-Tailed-2020-S01-E01-mkv-20210409-024050-363.png) ![alt text](https://i.ibb.co/BLymk8v/Kay-Rips-Tale-of-the-Nine-Tailed-2020-S01-E02-mkv-20210409-024136-156.png)

File list

  • Tale of the Nine Tailed (2020)
    • Season 1
      • [KayRips] Tale of the Nine Tailed (2020) - S01E01.mkv (2.6 GiB)
      • [KayRips] Tale of the Nine Tailed (2020) - S01E02.mkv (3.1 GiB)
      • [KayRips] Tale of the Nine Tailed (2020) - S01E03.mkv (3.4 GiB)
      • [KayRips] Tale of the Nine Tailed (2020) - S01E04.mkv (2.6 GiB)
      • [KayRips] Tale of the Nine Tailed (2020) - S01E05.mkv (2.2 GiB)
      • [KayRips] Tale of the Nine Tailed (2020) - S01E06.mkv (2.2 GiB)
      • [KayRips] Tale of the Nine Tailed (2020) - S01E07.mkv (2.9 GiB)
      • [KayRips] Tale of the Nine Tailed (2020) - S01E08.mkv (2.6 GiB)
      • [KayRips] Tale of the Nine Tailed (2020) - S01E09.mkv (2.8 GiB)
      • [KayRips] Tale of the Nine Tailed (2020) - S01E10.mkv (2.8 GiB)
      • [KayRips] Tale of the Nine Tailed (2020) - S01E11.mkv (2.6 GiB)
      • [KayRips] Tale of the Nine Tailed (2020) - S01E12.mkv (2.4 GiB)
      • [KayRips] Tale of the Nine Tailed (2020) - S01E13.mkv (2.5 GiB)
      • [KayRips] Tale of the Nine Tailed (2020) - S01E14.mkv (1.8 GiB)
      • [KayRips] Tale of the Nine Tailed (2020) - S01E15.mkv (2.8 GiB)
      • [KayRips] Tale of the Nine Tailed (2020) - S01E16.mkv (3.0 GiB)