[KayRips] Men on a Mission (2015) 262-274 [S2021][1080p][WEB-DL x264][Eng-Subs] (Batch)

Category:
Date:
2021-04-08 11:33 UTC
Submitter:
Seeders:
2
Information:
Leechers:
3
File size:
34.0 GiB
Completed:
9
Info hash:
b57ec69ac8e01d5ca1b63703382e45c3df7c84cd
DDL on discord https://discord.gg/whtT7vqfKB Support us (Seedbox ain't free unfortunately) - [Donate](https://ko-fi.com/kayrips) **Series:** Men on a Mission (2015) **Episodes :** 1 - ?? **Country :** South Korea **Genres :** Variety Show **Duration :** 1hr. 40 min. **Source :** Viu SG **Available Subtitle :** English P/s : They are soft sub, first and 3rd pic taken with sub on screen It is a sitcom talk show program set in a school. In each episode, new celebrity guests appear as transfer students at the 'Brother School' where seven mischievous brother students wait for them. The show consists of several dynamic sessions. In ‘Guess About Me,’ Celebrity guests create random, secret questions about themselves. Then the hosts called 'Knowledgeable Bros' make humorous guesses to get the answers. Another session is ‘Bros Inside’, an ad-lib skit show, where entertainers are given only the setting for a story and have to perform completely ad-libbed skits. -*jTBC* *Episode 562 Mediainfo* ``` Video ID : 1 Format : AVC Format/Info : Advanced Video Codec Format profile : High@L4.1 Format settings : CABAC / 4 Ref Frames Format settings, CABAC : Yes Format settings, Reference frames : 4 frames Codec ID : V_MPEG4/ISO/AVC Duration : 1 h 45 min Bit rate mode : Variable Bit rate : 3 571 kb/s Maximum bit rate : 4 500 kb/s Width : 1 920 pixels Height : 1 080 pixels Display aspect ratio : 16:9 Frame rate mode : Constant Frame rate : 29.970 (30000/1001) FPS Original frame rate : 29.970 (29970/1000) FPS Color space : YUV Chroma subsampling : 4:2:0 Bit depth : 8 bits Scan type : Progressive Bits/(Pixel*Frame) : 0.057 Stream size : 2.63 GiB (97%) Writing library : VOLO1.4.1 Default : Yes Forced : No Audio ID : 2 Format : AAC LC Format/Info : Advanced Audio Codec Low Complexity Codec ID : A_AAC-2 Duration : 1 h 45 min Bit rate : 96.0 kb/s Channel(s) : 2 channels Channel layout : L R Sampling rate : 48.0 kHz Frame rate : 46.875 FPS (1024 SPF) Compression mode : Lossy Delay relative to video : -42 ms Stream size : 72.3 MiB (3%) Language : Korean Default : Yes Forced : No ``` ![alt text](https://i.imgur.com/rlPK4iu.png) ![alt text](https://i.imgur.com/hU5rEYO.png) ![alt text](https://i.imgur.com/gr9ZpOk.png) ![alt text](https://i.ibb.co/Qc0dCzG/Kay-Rips-Knowing-Bros-S2021-E12-mkv-20210328-214530-781.png) ![alt text](https://i.ibb.co/tQLp8tM/Brave-Girls-349763-mp4-20210404-194214-306.png)

File list

  • Men on a Mission (2015)
    • Season 2021
      • [KayRips] Men on a Mission (2015) - S2021E01 (262).mkv (2.7 GiB)
      • [KayRips] Men on a Mission (2015) - S2021E02 (263).mkv (2.3 GiB)
      • [KayRips] Men on a Mission (2015) - S2021E03 (264).mkv (2.5 GiB)
      • [KayRips] Men on a Mission (2015) - S2021E04 (265).mkv (2.4 GiB)
      • [KayRips] Men on a Mission (2015) - S2021E05 (266).mkv (2.7 GiB)
      • [KayRips] Men on a Mission (2015) - S2021E06 (267).mkv (2.5 GiB)
      • [KayRips] Men on a Mission (2015) - S2021E07 (268).mkv (2.6 GiB)
      • [KayRips] Men on a Mission (2015) - S2021E08 (269).mkv (3.0 GiB)
      • [KayRips] Men on a Mission (2015) - S2021E09 (270).mkv (2.4 GiB)
      • [KayRips] Men on a Mission (2015) - S2021E10 (271).mkv (2.6 GiB)
      • [KayRips] Men on a Mission (2015) - S2021E11 (272).mkv (2.7 GiB)
      • [KayRips] Men on a Mission (2015) - S2021E12 (273).mkv (2.8 GiB)
      • [KayRips] Men on a Mission (2015) - S2021E13 (274).mkv (2.8 GiB)