[MO-F] ViVid Strike! [BD-Rip][720p][H264][VOSTFR]

Category:
Date:
2021-04-07 18:07 UTC
Submitter:
Anonymous
Seeders:
9
File size:
5.8 GiB
Completed:
14
Info hash:
31a463bb41f58f218ec955e3f76f745cb2abbb81
### ViVid Strike! ![ViVid Strike!](https://web.archive.org/web/20201205011025im_/https://static-uploads.mo-f.fr/2016/10/page.jpg) **ANNÉE DE PRODUCTION** : 2016 **STUDIO** : SEVEN ARCS **GENRES** : Amitié, Magical Girl, Combat > L'intrigue se déroule un an après Mahou Shoujo Lyrical Nanoha Vivid. On y retrouve Vivio Takamachi et ses amis. Et surtout, deux nouvelles héroines : Fuuka Reventon et son amie Rinne Berlinetta, deux orphelines. Rinne a été adopté par une famille riche alors que Fuuka, vit de petits boulots pour survivre. Fuuka s'est jurée de devenir plus forte pour protéger ceux qu'elle aime. Elle croise alors, la route de Einhard Stratos... Video| Audio| | ------------- |:------------- | | Codec : h264 (8 bits) | Language : Japanese | | Resolution : 1280x720 | Channel : 2.0 | | Frame rate : 23.976 FPS | Frame rate : 46.875 FPS | --- En mémoire de la team Mini Oppai Fansub (MO-F) et de ses membres : * Drksun * Benpro * Hikaru * Earthquacke * Alazrian * Der Ultima * Devil_Zangetsu * Dreamtiger * Enfant du Monde * funky.data * Iruka * LouisFr * Ralph --- ``` General Unique ID : 309263401389807994900010117302984381937 (0xE8A9F6EC5A7E3F613A0A0AAC5E4815F1) Complete name : [MO-F]ViVid_Strike_EP01[720p][0CE5112D].mkv Format : Matroska Format version : Version 4 File size : 475 MiB Duration : 23 min 59 s Overall bit rate : 2 770 kb/s Movie name : Épisode 01 : Fuuka Reventon Encoded date : UTC 2016-10-14 18:07:45 Writing application : mkvmerge v8.2.0 ('World of Adventure') 64bit Writing library : libebml v1.3.1 + libmatroska v1.4.2 Attachments : mux/fonts/ANNA___.ttf / mux/fonts/arialbd.ttf / mux/fonts/ARLRDBD.TTF / mux/fonts/BASKVILL.TTF / mux/fonts/BRLNSDB.TTF / mux/fonts/DESYREL.ttf Video ID : 1 Format : AVC Format/Info : Advanced Video Codec Format profile : High@L4.1 Format settings : CABAC / 4 Ref Frames Format settings, CABAC : Yes Format settings, Reference frames : 4 frames Codec ID : V_MPEG4/ISO/AVC Duration : 23 min 59 s Bit rate : 2 569 kb/s Width : 1 280 pixels Height : 720 pixels Display aspect ratio : 16:9 Frame rate mode : Constant Frame rate : 23.976 (24000/1001) FPS Color space : YUV Chroma subsampling : 4:2:0 Bit depth : 8 bits Scan type : Progressive Bits/(Pixel*Frame) : 0.116 Stream size : 441 MiB (93%) Title : H.264 720p Writing library : x264 core 129 r2245+729M 1a52e03 Encoding settings : cabac=1 / ref=4 / deblock=1:1:-1 / analyse=0x3:0x113 / me=umh / subme=9 / psy=1 / fade_compensate=0.00 / psy_rd=1.00:0.00 / mixed_ref=1 / me_range=24 / chroma_me=1 / trellis=2 / 8x8dct=1 / cqm=0 / deadzone=21,11 / fast_pskip=1 / chroma_qp_offset=-2 / threads=8 / lookahead_threads=1 / sliced_threads=0 / nr=0 / decimate=1 / interlaced=0 / bluray_compat=0 / constrained_intra=0 / fgo=0 / bframes=9 / b_pyramid=2 / b_adapt=2 / b_bias=0 / direct=1 / weightb=1 / open_gop=0 / weightp=2 / keyint=240 / keyint_min=24 / scenecut=40 / intra_refresh=0 / rc=crf / mbtree=0 / crf=17.5 / qcomp=0.72 / qpmin=0 / qpmax=69 / qpstep=4 / ip_ratio=1.40 / pb_ratio=1.30 / aq=1:0.85 Language : Japanese Default : Yes Forced : No Color range : Limited Color primaries : BT.709 Transfer characteristics : BT.709 Matrix coefficients : BT.709 Audio ID : 2 Format : AAC LC Format/Info : Advanced Audio Codec Low Complexity Codec ID : A_AAC-2 Duration : 23 min 59 s Bit rate : 192 kb/s Channel(s) : 2 channels Channel layout : L R Sampling rate : 48.0 kHz Frame rate : 46.875 FPS (1024 SPF) Compression mode : Lossy Stream size : 32.9 MiB (7%) Title : AAC 2.0 Language : Japanese Default : Yes Forced : No Text #1 ID : 3 Format : ASS Codec ID : S_TEXT/ASS Codec ID/Info : Advanced Sub Station Alpha Duration : 23 min 46 s Bit rate : 118 b/s Count of elements : 351 Compression mode : Lossless Stream size : 20.6 KiB (0%) Title : ASS (avec effets) Language : French Default : Yes Forced : No Text #2 ID : 4 Format : UTF-8 Codec ID : S_TEXT/UTF8 Codec ID/Info : UTF-8 Plain Text Duration : 23 min 46 s Bit rate : 72 b/s Count of elements : 351 Stream size : 12.6 KiB (0%) Title : SRT (sans effets) Language : French Default : No Forced : No Menu 00:00:00.000 : fr:Partie A 00:09:37.910 : fr:EyeCatch 1 00:09:47.920 : fr:EyeCatch 2 00:09:50.923 : fr:Partie B 00:20:16.882 : fr:Opening 00:21:46.847 : fr:Partie C 00:22:09.786 : :Ending 00:23:39.793 : fi:Preview 00:23:49.803 : fi:EyeCatch 3 ```

File list

  • [MO-F] ViVid Strike! [BDRip][720p][H264]
    • [MO-F]ViVid_Strike_EP01[720p][0CE5112D].mkv (475.5 MiB)
    • [MO-F]ViVid_Strike_EP02[720p][43C419A7].mkv (454.6 MiB)
    • [MO-F]ViVid_Strike_EP03[720p][23EA44A4].mkv (405.0 MiB)
    • [MO-F]ViVid_Strike_EP04[720p][8003F2F1].mkv (400.0 MiB)
    • [MO-F]ViVid_Strike_EP05[720p][64F2798A].mkv (445.8 MiB)
    • [MO-F]ViVid_Strike_EP06[720p][8A5DB0A8].mkv (592.5 MiB)
    • [MO-F]ViVid_Strike_EP07[720p][ECACF15D].mkv (553.8 MiB)
    • [MO-F]ViVid_Strike_EP08[720p][682129E4].mkv (492.2 MiB)
    • [MO-F]ViVid_Strike_EP09[720p][48EE089B].mkv (419.4 MiB)
    • [MO-F]ViVid_Strike_EP10[720p][EFF0299E].mkv (637.4 MiB)
    • [MO-F]ViVid_Strike_EP11[720p][CB8AF0EB].mkv (703.5 MiB)
    • [MO-F]ViVid_Strike_EP12_FIN[720p][C2E3DE9A].mkv (329.4 MiB)
Merci j'espère voir Kannagi dans vos partages en soft ;)