[Mysteria] Saenai Heroine no Sodatekata. Fine | How to Raise a Boring Girlfriend Movie (BD 1080p HEVC FLAC)

Category:
Date:
2021-04-06 21:51 UTC
Submitter:
Seeders:
11
Information:
Leechers:
0
File size:
4.3 GiB
Completed:
142
Info hash:
338b6227e7aabf7edf8503943b1f1d1d1cd77e28
*Title: **[Saenai Heroine no Sodatekata. Fine](https://myanimelist.net/anime/36885/Saenai_Heroine_no_Sodatekata_Fine)** *Original Source: **[Beatrice-Raws](https://nyaa.si/view/1288483)** *Video Format: x265 HEVC 10bit mkv *Audio Codec: Japanese 2.0 FLAC *Subtitle Source: **SCY-Circle** *Duration: 1h 54min *Subtitle: English *Resolution/Quality: 1920x1080 or 1080p HD *Genre: School, Comedy, Romance *Age Rating: PG-13 **Media Info:** ``` General Unique ID : 113074503244861106637329777316217489372 (0x55115B6FCB658691A7829F29DB3407DC) Complete name : C:\Users\MP\Downloads\[Mysteria] Saenai Heroine no Sodatekata. Fine (BD 1080p HEVC FLAC) [6A5E3215].mkv Format : Matroska Format version : Version 4 File size : 4.27 GiB Duration : 1 h 54 min Overall bit rate mode : Variable Overall bit rate : 5 322 kb/s Movie name : [Mysteria] Saenai Heroine no Sodatekata. Fine (BD 1080p HEVC FLAC) Encoded date : UTC 2021-04-06 21:38:34 Writing application : mkvmerge v56.0.0 ('Strasbourg / St. Denis') 64-bit Writing library : libebml v1.4.2 + libmatroska v1.6.4 Attachments : 21st Century Juliet.ttf / a_AvanteTckNr ExtraBold.ttf / Aileron-Regular.otf / arialbd.ttf / ArialRoundedMT.ttf / ARLRDBD.TTF / Balthazar-Regular.ttf / BlissPro-Bold.otf / BLISSPROOT-REGULAR.OTF / blue highway rg.otf / Cabin-Bold.otf / calibri.ttf / calibrib.ttf / CameronSans.ttf / Clannad_Round_Regular.ttf / Designosaur-Regular.ttf / digitalsansefmedium.ttf / Dry Brush.ttf / Elementary, My dear.ttf / Exposition.ttf / Fertigo_PRO.otf / FF_Celeste_Sans_Pro_Bold.otf / GothamRndSSm-Book.otf / Hand of Diesel.ttf / HANDWRITTEN_CRYSTAL_V2.TTF / Iwata-Kaisho.otf / LT.ttf / Roboto Regular.ttf / RolandBecker Bold.ttf / serangkaianpattern.ttf / ShannonBookEienStinx-Bold.ttf / ShannonBookEienStinx-BoldItalic.ttf / To Japan.otf / ViceCitySans.otf Video ID : 1 Format : HEVC Format/Info : High Efficiency Video Coding Format profile : Main 10@L4@Main Codec ID : V_MPEGH/ISO/HEVC Duration : 1 h 54 min Bit rate : 4 032 kb/s Width : 1 920 pixels Height : 1 080 pixels Display aspect ratio : 16:9 Frame rate mode : Constant Frame rate : 23.976 (24000/1001) FPS Color space : YUV Chroma subsampling : 4:2:0 Bit depth : 10 bits Bits/(Pixel*Frame) : 0.081 Stream size : 3.23 GiB (76%) Title : BDrip by Jensen Writing library : x265 3.4+26-ga82c6c7a7:[Windows][MSVC 1927][64 bit] 10bit Encoding settings : cpuid=1049583 / frame-threads=16 / numa-pools=24,24 / wpp / pmode / pme / no-psnr / no-ssim / log-level=2 / csv / csv-log-level=0 / input-csp=1 / input-res=1920x1080 / interlace=0 / total-frames=0 / level-idc=0 / high-tier=1 / uhd-bd=0 / ref=4 / no-allow-non-conformance / no-repeat-headers / annexb / no-aud / no-hrd / info / hash=0 / no-temporal-layers / open-gop / min-keyint=23 / keyint=240 / gop-lookahead=0 / bframes=8 / b-adapt=2 / b-pyramid / bframe-bias=0 / rc-lookahead=20 / lookahead-slices=6 / scenecut=40 / hist-scenecut=0 / radl=0 / no-splice / no-intra-refresh / ctu=64 / min-cu-size=8 / no-rect / no-amp / max-tu-size=32 / tu-inter-depth=2 / tu-intra-depth=2 / limit-tu=0 / rdoq-level=2 / dynamic-rd=0.00 / no-ssim-rd / signhide / no-tskip / nr-intra=0 / nr-inter=0 / no-constrained-intra / no-strong-intra-smoothing / max-merge=5 / limit-refs=1 / no-limit-modes / me=3 / subme=7 / merange=57 / temporal-mvp / no-frame-dup / no-hme / weightp / weightb / analyze-src-pics / deblock=1:-1 / no-sao / no-sao-non-deblock / rd=5 / selective-sao=0 / no-early-skip / rskip / no-fast-intra / no-tskip-fast / no-cu-lossless / b-intra / no-splitrd-skip / rdpenalty=0 / psy-rd=2.00 / psy-rdoq=4.00 / no-rd-refine / no-lossless / cbqpoffs=-2 / crqpoffs=-2 / rc=crf / crf=15.0 / qcomp=0.72 / qpstep=4 / stats-write=0 / stats-read=0 / ipratio=1.40 / pbratio=1.30 / aq-mode=3 / aq-strength=1.03 / no-cutree / zone-count=0 / no-strict-cbr / qg-size=32 / no-rc-grain / qpmax=69 / qpmin=0 / no-const-vbv / sar=0 / overscan=0 / videoformat=5 / range=0 / colorprim=1 / transfer=1 / colormatrix=1 / chromaloc=0 / display-window=0 / cll=0,0 / min-luma=0 / max-luma=1023 / log2-max-poc-lsb=8 / vui-timing-info / vui-hrd-info / slices=1 / no-opt-qp-pps / no-opt-ref-list-length-pps / no-multi-pass-opt-rps / scenecut-bias=0.05 / hist-threshold=0.03 / no-opt-cu-delta-qp / no-aq-motion / no-hdr10 / no-hdr10-opt / no-dhdr10-opt / no-idr-recovery-sei / analysis-reuse-level=0 / analysis-save-reuse-level=0 / analysis-load-reuse-level=0 / scale-factor=0 / refine-intra=4 / refine-inter=0 / refine-mv=3 / refine-ctu-distortion=0 / no-limit-sao / ctu-info=0 / no-lowpass-dct / refine-analysis-type=0 / copy-pic=1 / max-ausize-factor=1.0 / dynamic-refine / no-single-sei / no-hevc-aq / no-svt / no-field / qp-adaptation-range=2.00 / no-scenecut-aware-qpconformance-window-offsets / right=0 / bottom=0 / decoder-max-rate=0 / no-vbv-live-multi-pass Language : Japanese Default : Yes Forced : No Color range : Limited Color primaries : BT.709 Transfer characteristics : BT.709 Matrix coefficients : BT.709 Audio ID : 2 Format : FLAC Format/Info : Free Lossless Audio Codec Codec ID : A_FLAC Duration : 1 h 54 min Bit rate mode : Variable Bit rate : 1 250 kb/s Channel(s) : 2 channels Channel layout : L R Sampling rate : 48.0 kHz Frame rate : 11.719 FPS (4096 SPF) Bit depth : 24 bits Compression mode : Lossless Stream size : 1.00 GiB (23%) Title : Japanese 2.0 FLAC Writing library : CUETools FLACCL 2.1.6 Language : Japanese Default : Yes Forced : No Text ID : 3 Format : ASS Codec ID : S_TEXT/ASS Codec ID/Info : Advanced Sub Station Alpha Duration : 1 h 54 min Bit rate : 18.1 kb/s Count of elements : 78324 Compression mode : Lossless Stream size : 14.9 MiB (0%) Title : Full Subtitles (SCY-Circle) Language : English Default : Yes Forced : No Menu 00:00:00.000 : Prologue 00:00:14.014 : Part A 00:12:36.214 : Part B 00:16:59.936 : Part C 00:23:45.924 : Part D 00:31:37.604 : Part E 00:40:00.398 : Part F 00:45:20.676 : Part G 00:51:50.566 : Part H 00:57:58.809 : Part I 01:04:24.986 : Part J 01:11:39.795 : Part K 01:17:23.097 : Part L 01:24:40.951 : Part M 01:37:49.280 : Part N 01:44:09.660 : Ending ```

File list

  • [Mysteria] Saenai Heroine no Sodatekata. Fine (BD 1080p HEVC FLAC) [6A5E3215].mkv (4.3 GiB)
SCY or Mysteria release? :thinking: :thinking: