[KayRips] Unchain (aka Method) (2017) [1080p][WEB-DL x264][Multi-Subs] (Movie)

Category:
Date:
2021-04-06 06:03 UTC
Submitter:
Seeders:
2
Information:
Leechers:
3
File size:
2.4 GiB
Completed:
33
Info hash:
9f7510178c198dbe2f9bc77ecc432b34b5045b15
DDL on discord https://discord.gg/whtT7vqfKB **Title :** Method / Unchain **Country :** South Korea **Genre :** Psychological, Romance, Drama **Duration :** 1 h 22 min 0 sec **Release Date :** Nov 2, 2017 **Content Rating :** 15+ - Teens 15 or older **Source :** Viki **Available Subtitles :** English, Spanish, French, Italian, Polish, Portuguese, German, Tagalog A veteran actor and an idol are starring together in a play called 'Unchain'. In the play, their characters become involved in a relationship and as they rehearse, the distance between reality and fiction starts to get blurry. -*MDL* ``` Video ID : 2 Format : AVC Format/Info : Advanced Video Codec Format profile : High@L4 Format settings : CABAC / 4 Ref Frames Format settings, CABAC : Yes Format settings, Reference frames : 4 frames Codec ID : V_MPEG4/ISO/AVC Duration : 1 h 21 min Bit rate : 4 000 kb/s Width : 1 920 pixels Height : 1 080 pixels Display aspect ratio : 16:9 Frame rate mode : Constant Frame rate : 24.000 FPS Color space : YUV Chroma subsampling : 4:2:0 Bit depth : 8 bits Scan type : Progressive Bits/(Pixel*Frame) : 0.080 Stream size : 2.29 GiB (95%) Writing library : x264 core 148 Encoding settings : cabac=1 / ref=3 / deblock=1:0:0 / analyse=0x3:0x113 / me=umh / subme=10 / psy=1 / psy_rd=1.00:0.00 / mixed_ref=1 / me_range=24 / chroma_me=1 / trellis=2 / 8x8dct=1 / cqm=0 / deadzone=21,11 / fast_pskip=1 / chroma_qp_offset=-2 / threads=24 / lookahead_threads=2 / sliced_threads=0 / nr=0 / decimate=1 / interlaced=0 / bluray_compat=0 / constrained_intra=0 / bframes=3 / b_pyramid=2 / b_adapt=2 / b_bias=0 / direct=1 / weightb=1 / open_gop=0 / weightp=2 / keyint=120 / keyint_min=61 / scenecut=0 / intra_refresh=0 / rc_lookahead=60 / rc=2pass / mbtree=1 / bitrate=4000 / ratetol=1.0 / qcomp=0.60 / qpmin=0 / qpmax=69 / qpstep=4 / cplxblur=20.0 / qblur=0.5 / ip_ratio=1.40 / aq=1:1.00 Default : Yes Forced : No Audio ID : 1 Format : AAC LC Format/Info : Advanced Audio Codec Low Complexity Codec ID : A_AAC-2 Duration : 1 h 22 min Bit rate : 192 kb/s Channel(s) : 2 channels Channel layout : L R Sampling rate : 48.0 kHz Frame rate : 46.875 FPS (1024 SPF) Compression mode : Lossy Stream size : 113 MiB (5%) Language : Korean Default : Yes Forced : No ``` ![alt text](https://i.ibb.co/RSvQd7q/Kay-Rips-Unchain-aka-Method-2017-mkv-20210406-133409-181.png) ![alt text](https://i.ibb.co/NsyBb03/Kay-Rips-Unchain-aka-Method-2017-mkv-20210406-134333-319.png) ![alt text](https://i.ibb.co/jGzVGhC/Kay-Rips-Unchain-aka-Method-2017-mkv-20210406-134354-483.png) ![alt text](https://i.ibb.co/bK3z3X5/Kay-Rips-Unchain-aka-Method-2017-mkv-20210406-134349-107.png) ![alt text](https://i.ibb.co/Xk4QVzv/Kay-Rips-Unchain-aka-Method-2017-mkv-20210406-134421-569.png)

File list

  • [KayRips] Unchain (aka Method) (2017).mkv (2.4 GiB)
i was confused by that comment buy after looking it up, yes it's gay

kayrips (uploader)

User
izz gei tru