[KayRips] Running Man (2010) 536-549 [S2021][1080p][WEB-DL x264][Eng-Subs] (Batch)

Category:
Date:
2021-04-05 12:59 UTC
Submitter:
Seeders:
2
Information:
Leechers:
2
File size:
32.5 GiB
Completed:
5
Info hash:
6aee1b85a6667632962163e3a0943729cd988884
DDL on discord https://discord.gg/whtT7vqfKB Support us (Seedbox ain't free unfortunately) - [Donate](https://ko-fi.com/kayrips) P/s : We're planning to do all Episodes of Running Man, Episode 1 and so on, so please Seed and support us if you like! **Series:** Running Man (2010) **Episodes :** INFINITE (hopefully :P) **Country :** South Korea **Genres :** Variety Show **Duration :** 1hr. 30 min. **Source :** Viki, Viu SG **Available Subtitle :** English Nowadays, variety entertainment is gradually disappearing It is one of Korea's representative variety entertainment shows that has been in charge of Sunday evenings for over 10 years. In this program, many stars and members play games and missions together. It is characterized by going around several places. In particular, this program focuses solely on laughter among the many fun elements of entertainment. Open your eyes! Big fun enters! Open your mouth! A big smile enters! Open your mind! Instructive lesson enters!? -*theTVDB* *Episode 536 Mediainfo* ``` Video ID : 1 Format : AVC Format/Info : Advanced Video Codec Format profile : Main@L4 Format settings : CABAC / 4 Ref Frames Format settings, CABAC : Yes Format settings, Reference frames : 4 frames Codec ID : V_MPEG4/ISO/AVC Duration : 1 h 21 min Bit rate : 4 000 kb/s Width : 1 920 pixels Height : 1 080 pixels Display aspect ratio : 16:9 Frame rate mode : Variable Frame rate : 29.970 FPS Color space : YUV Chroma subsampling : 4:2:0 Bit depth : 8 bits Scan type : Progressive Bits/(Pixel*Frame) : 0.064 Stream size : 2.26 GiB (97%) Writing library : x264 core 157 Encoding settings : cabac=1 / ref=1 / deblock=1:0:0 / analyse=0x1:0x111 / me=hex / subme=5 / psy=1 / psy_rd=1.00:0.00 / mixed_ref=0 / me_range=16 / chroma_me=1 / trellis=1 / 8x8dct=0 / cqm=0 / deadzone=21,11 / fast_pskip=1 / chroma_qp_offset=0 / threads=4 / lookahead_threads=1 / sliced_threads=0 / nr=0 / decimate=1 / interlaced=0 / bluray_compat=0 / stitchable=1 / constrained_intra=0 / bframes=3 / b_pyramid=2 / b_adapt=1 / b_bias=0 / direct=1 / weightb=1 / open_gop=0 / weightp=2 / keyint=60 / keyint_min=20 / scenecut=40 / intra_refresh=0 / rc_lookahead=40 / rc=cbr / mbtree=1 / bitrate=4000 / ratetol=1.0 / qcomp=0.60 / qpmin=10 / qpmax=50 / qpstep=4 / vbv_maxrate=4000 / vbv_bufsize=8000 / nal_hrd=none / filler=0 / ip_ratio=1.41 / aq=1:1.00 Default : Yes Forced : No Audio ID : 2 Format : AAC LC Format/Info : Advanced Audio Codec Low Complexity Codec ID : A_AAC-2 Duration : 1 h 21 min Bit rate : 128 kb/s Channel(s) : 2 channels Channel layout : L R Sampling rate : 44.1 kHz Frame rate : 43.066 FPS (1024 SPF) Compression mode : Lossy Stream size : 74.4 MiB (3%) Language : Korean Default : Yes Forced : No ``` ![alt text](https://i.ibb.co/31NXYYb/Kay-Rips-Running-Man-S2021-E548-mkv-20210329-100747-243.png) ![alt text](https://i.ibb.co/0V3Ng7V/vlcsnap-2021-03-22-08h36m19s281.png) ![alt text](https://i.ibb.co/pySmVWx/vlcsnap-2021-03-15-05h50m33s601.png) ![alt text](https://i.ibb.co/ccgPm1K/vlcsnap-2021-03-08-05h22m55s968.png) ![alt text](https://i.ibb.co/JpDzB19/Kay-Rips-Running-Man-S2021-E549-mkv-20210405-142343-459.png)

File list

  • Running Man (2010)
    • Season 2021
      • [KayRips] Running Man - S2021E536 (536).mkv (2.3 GiB)
      • [KayRips] Running Man - S2021E537 (537).mkv (2.3 GiB)
      • [KayRips] Running Man - S2021E538 (538).mkv (2.3 GiB)
      • [KayRips] Running Man - S2021E539 (539).mkv (2.3 GiB)
      • [KayRips] Running Man - S2021E540 (540).mkv (2.4 GiB)
      • [KayRips] Running Man - S2021E541 (541).mkv (2.4 GiB)
      • [KayRips] Running Man - S2021E542 (542).mkv (2.3 GiB)
      • [KayRips] Running Man - S2021E543 (543).mkv (2.2 GiB)
      • [KayRips] Running Man - S2021E544 (544).mkv (2.2 GiB)
      • [KayRips] Running Man - S2021E545 (545).mkv (2.3 GiB)
      • [KayRips] Running Man - S2021E546 (546).mkv (2.3 GiB)
      • [KayRips] Running Man - S2021E547 (547).mkv (2.3 GiB)
      • [KayRips] Running Man - S2021E548 (548).mkv (2.3 GiB)
      • [KayRips] Running Man - S2021E549 (549).mkv (2.4 GiB)