Vincenzo S01E14 (Multi-Sub)(1920x1080 AVC DDP)

Category:
Date:
2021-04-04 18:05 UTC
Submitter:
Anonymous
Seeders:
3
Information:
No information.
Leechers:
2
File size:
3.4 GiB
Completed:
35
Info hash:
60fa336b55e4dea43aa92c151c0ba66eee08e38a
```Video ID : 1 Format : AVC Format/Info : Advanced Video Codec Format profile : Main@L4 Format settings : CABAC / 3 Ref Frames Format settings, CABAC : Yes Format settings, Reference frames : 3 frames Codec ID : V_MPEG4/ISO/AVC Duration : 1 h 22 min Bit rate mode : Variable Bit rate : 5 800 kb/s Maximum bit rate : 8 700 kb/s Width : 1 920 pixels Height : 1 080 pixels Display aspect ratio : 16:9 Frame rate mode : Constant Frame rate : 23.976 (24000/1001) FPS Color space : YUV Chroma subsampling : 4:2:0 Bit depth : 8 bits Scan type : Progressive Bits/(Pixel*Frame) : 0.117 Stream size : 3.33 GiB (98%) Writing library : x264 core 148 r2722 1b0121b Encoding settings : cabac=1 / ref=3 / deblock=1:0:0 / analyse=0x1:0x111 / me=umh / subme=10 / psy=1 / psy_rd=1.00:0.00 / mixed_ref=1 / me_range=24 / chroma_me=1 / trellis=2 / 8x8dct=0 / cqm=0 / deadzone=21,11 / fast_pskip=1 / chroma_qp_offset=-2 / threads=8 / lookahead_threads=1 / sliced_threads=0 / nr=0 / decimate=1 / interlaced=0 / bluray_compat=0 / stitchable=1 / constrained_intra=0 / bframes=2 / b_pyramid=0 / b_adapt=2 / b_bias=0 / direct=3 / weightb=1 / open_gop=0 / weightp=2 / keyint=250 / keyint_min=23 / scenecut=0 / intra_refresh=0 / rc_lookahead=48 / rc=2pass / mbtree=1 / bitrate=5800 / ratetol=1.0 / qcomp=0.50 / qpmin=6 / qpmax=51 / qpstep=4 / cplxblur=20.0 / qblur=0.5 / vbv_maxrate=8700 / vbv_bufsize=11600 / nal_hrd=vbr / filler=0 / ip_ratio=1.40 / aq=1:1.00 Default : Yes Forced : Yes Audio ID : 2 Format : E-AC-3 Format/Info : Enhanced AC-3 Commercial name : Dolby Digital Plus Codec ID : A_EAC3 Duration : 1 h 22 min Bit rate mode : Constant Bit rate : 128 kb/s Channel(s) : 2 channels Channel layout : L R Sampling rate : 48.0 kHz Frame rate : 31.250 FPS (1536 SPF) Compression mode : Lossy Stream size : 75.3 MiB (2%) Title : Korean Language : Korean Service kind : Complete Main Default : Yes Forced : Yes Text #0 : UTF-8 Language : en Text #1 : UTF-8 Language : ar Text #2 : UTF-8 Language : zh Text #3 : UTF-8 Language : zh Text #4 : UTF-8 Language : id Text #5 : UTF-8 Language : ja Text #6 : UTF-8 Language : ko Text #7 : UTF-8 Language : ko Text #8 : UTF-8 Language : ms Text #9 : UTF-8 Language : pt Text #10 : UTF-8 Language : es Text #11 : UTF-8 Language : th Text #12 : UTF-8 Language : vi ``` ![sc](https://i.imgur.com/LaPoUn7.png)

File list

  • Vincenzo S01E14 (Multi-Sub)(1920x1080 AVC DDP).mkv (3.4 GiB)