[KayRips] Youth With You Season 3 Episode 14 WEB-DL.HEVC.x265 8-Bit AAC ENG Subbed (1080p)

Category:
Date:
2021-04-04 17:00 UTC
Submitter:
Seeders:
1
Information:
Leechers:
0
File size:
5.5 GiB
Completed:
7
Info hash:
deae7f09ad9674268aa642c77e64ee3aa45862fb
DDL on discord https://discord.gg/whtT7vqfKB **Title :** Youth With You Season 3 / 青春有你3 **Episode :** 14 **Country :** China **Genre :** Friendship, Music, Youth **Duration :** 2 h 28 min 14 sec *(Combination of Part 1, and Part 2)* ``` Video ID : 1 Format : HEVC Format/Info : High Efficiency Video Coding Format profile : Main@L4@Main Codec ID : V_MPEGH/ISO/HEVC Duration : 2 h 28 min Bit rate : 5 139 kb/s Width : 1 920 pixels Height : 1 080 pixels Display aspect ratio : 16:9 Frame rate mode : Constant Frame rate : 24.000 FPS Color space : YUV Chroma subsampling : 4:2:0 Bit depth : 8 bits Bits/(Pixel*Frame) : 0.103 Stream size : 5.32 GiB (96%) Default : Yes Forced : No Audio ID : 2 Format : AAC LC Format/Info : Advanced Audio Codec Low Complexity Codec ID : A_AAC-2 Duration : 2 h 28 min Bit rate : 192 kb/s Channel(s) : 2 channels Channel layout : L R Sampling rate : 44.1 kHz Frame rate : 43.066 FPS (1024 SPF) Compression mode : Lossy Stream size : 201 MiB (4%) Language : Chinese Default : Yes Forced : No Menu 00:00:00.000 : :Part 01 01:40:40.044 : :Part 02 ``` ![alt text](https://i.ibb.co/G0h7HfZ/Kay-Rips-Youth-With-You-S03-E14-mkv-20210405-005911-475.png)

File list

  • [KayRips] Youth With You - S03E14.mkv (5.5 GiB)