[neoHEVC] Isekai Quartet [Season 2] [BD 1080p x265 HEVC AAC] [Dual Audio]

Category:
Date:
2021-04-03 11:54 UTC
Submitter:
Seeders:
1
Information:
Leechers:
1
File size:
1.9 GiB
Completed:
192
Info hash:
292b83769e751c6428de5c9634873068914cf5cf
![](https://i.imgur.com/RBlGp48.png) *Join **[Discord](https://discord.gg/KYKYZUh)** for Current Projects, Encode-Requests and Seed-Request in case of no available seeds.* **Isekai Quartet [Season 2]** *with `Dual Audio (Jpn/Eng)` and `Eng Subs` in `BD 1080p HEVC`* Reencode of [ReinForce] (x264 AVC FLAC) to (x265 HEVC AAC) with added English audio tracks from [Golumpa] and English subtitles from [Asakura]. *Side Note: I created additional [Signs & Songs] subtitle tracks from the [Dialog] subtitle tracks to go with the added English audio tracks.* ![](https://i.imgur.com/4iegWLL.png) **[Trailer](https://www.youtube.com/watch?v=a1DW3txiXm8)** ![](https://i.imgur.com/3UxGuWB.png) ![](https://i.imgur.com/ZCtSawZ.png) **[MyAnimeList](https://myanimelist.net/anime/39988/Isekai_Quartet_2)** --- **Synopsis** Despite completing all the tasks given to them, Ainz Ooal Gown, Tanya Degurechaff, Kazuma Satou, Subaru Natsuki, and the other members of Class 2 are surprised to find out that their role as students is far from over. With no means of returning home, the class of eccentric personalities is still mysteriously stuck in the unfamiliar world. Although, as they are becoming quite fond of each other, spending more time together does not sound that bad. With the unexpected arrival of new transfer students, the comedic antics of our beloved characters continue to grow. Thus, their bizarre yet nonchalant school life continues. ![](https://i.imgur.com/7pKfEY0.png) --- **Language Options** I included two simple scripts that you can apply to these files to do the following (Windows only): 1. Change [Default Tracks]: Switches default tracks to *A:Japanese S:Dialog* 2. Make [Single Audio]: Throws out *English audio* and *Signs&Songs subtitles* tracks To apply these put all the video files into the *Language Options* folder and run the .bat file. <1> Changes existing files, <2> creates new ones in the *output* folder. --- **Comparison** *Open links, toggle with mouseclick and check title.* [![](https://i.imgur.com/xYbyJLI.png)](https://slow.pics/c/ntJxCdzg) [![](https://i.imgur.com/fKOWZRl.png)](https://slow.pics/c/dZ5IWNdi) [![](https://i.imgur.com/7onWyDt.png)](https://slow.pics/c/dUdf2B9c) --- **Source** ?️ Video and JPN Audio: **[[ReinForce]](https://nyaa.si/view/1279127)** ?️ ENG Audio: **[[Golumpa]](https://nyaa.si/view/1216164)** ?️ Subtitles: **[[Asakura]](https://nyaa.si/view/1320108)** ? *Subtitles Info: [Asakura] - Format `ASS`* --- **Media Info** ? [Full Mediainfo incl. Encoder Settings](https://pastebin.com/wKSZUAkN) ``` General Unique ID : 25079562065459202119276952784314677663 (0x12DE25E0893C38010AE9E528955DB99F) Complete name : Isekai Quartet - S02E01.mkv Format : Matroska Format version : Version 4 File size : 123 MiB Duration : 11 min 52 s Overall bit rate : 1 449 kb/s Movie name : Isekai Quartet - S02E01 Writing application : Lavf58.47.100 Writing library : Lavf58.47.100 ErrorDetectionType : Per level 1 Attachments : Gandhisans-Bolditalic.otf / Odin-Bold.otf / Avantgarde Bk Bt Eclipse_Book.ttf / Gandhisans-Bold.otf Video ID : 1 Format : HEVC Format/Info : High Efficiency Video Coding Format profile : Main 10@L4.1@High Codec ID : V_MPEGH/ISO/HEVC Duration : 11 min 52 s Bit rate : 1 124 kb/s Width : 1 920 pixels Height : 1 080 pixels Display aspect ratio : 16:9 Frame rate mode : Variable Frame rate : 23.976 (23976/1000) FPS Original frame rate : 23.976 (24000/1001) FPS Color space : YUV Chroma subsampling : 4:2:0 Bit depth : 10 bits Bits/(Pixel*Frame) : 0.023 Stream size : 95.5 MiB (78%) Writing library : x265 3.2.1+1-b5c86a64bbbe:[Windows][GCC 9.2.0][64 bit] 10bit Encoding settings : <Check Link Above> Default : Yes Forced : No Color range : Limited Color primaries : BT.709 Transfer characteristics : BT.709 Matrix coefficients : BT.709 Audio #1 ID : 2 Format : AAC LC Format/Info : Advanced Audio Codec Low Complexity Codec ID : A_AAC-2 Duration : 11 min 51 s Channel(s) : 2 channels Channel layout : L R Sampling rate : 48.0 kHz Frame rate : 46.875 FPS (1024 SPF) Compression mode : Lossy Title : Stereo - ENG (AAC) Writing library : Lavc58.93.100 aac Language : English Default : Yes Forced : No Audio #2 ID : 3 Format : AAC LC Format/Info : Advanced Audio Codec Low Complexity Codec ID : A_AAC-2 Duration : 11 min 52 s Bit rate : 116 kb/s Channel(s) : 2 channels Channel layout : L R Sampling rate : 48.0 kHz Frame rate : 46.875 FPS (1024 SPF) Compression mode : Lossy Delay relative to video : 21 ms Stream size : 9.86 MiB (8%) Title : Stereo - JPN (AAC) Language : Japanese Default : No Forced : No Text #1 ID : 4 Format : ASS Codec ID : S_TEXT/ASS Codec ID/Info : Advanced Sub Station Alpha Duration : 11 min 50 s Bit rate : 200 b/s Count of elements : 155 Compression mode : Lossless Stream size : 17.1 KiB (0%) Title : Signs & Songs - ENG (ASS) Writing library : Lavc58.93.100 ssa Language : English Default : Yes Forced : No Text #2 ID : 5 Format : ASS Codec ID : S_TEXT/ASS Codec ID/Info : Advanced Sub Station Alpha Duration : 11 min 51 s Bit rate : 328 b/s Count of elements : 379 Compression mode : Lossless Stream size : 28.0 KiB (0%) Title : Dialog - ENG (ASS) Writing library : Lavc58.93.100 ssa Language : English Default : No Forced : No Menu 00:00:00.033 : :Intro 00:00:10.990 : :Episode 00:10:22.600 : :Opening 00:11:50.680 : :Endcard ```

File list

  • [neoHEVC] Isekai Quartet [Season 2] [BD 1080p x265 HEVC AAC] [Dual Audio]
    • Language Options
      • 1. Change [Default Tracks].bat (283 Bytes)
      • 2. Make [Single Audio] Japanese.bat (124 Bytes)
      • mkvmerge.exe (9.6 MiB)
      • mkvpropedit.exe (5.1 MiB)
    • Isekai Quartet - S02E01.mkv (123.1 MiB)
    • Isekai Quartet - S02E02.mkv (187.9 MiB)
    • Isekai Quartet - S02E03.mkv (217.8 MiB)
    • Isekai Quartet - S02E04.mkv (159.8 MiB)
    • Isekai Quartet - S02E05.mkv (147.0 MiB)
    • Isekai Quartet - S02E06.mkv (229.4 MiB)
    • Isekai Quartet - S02E07.mkv (131.2 MiB)
    • Isekai Quartet - S02E08.mkv (139.8 MiB)
    • Isekai Quartet - S02E09.mkv (140.7 MiB)
    • Isekai Quartet - S02E10.mkv (148.2 MiB)
    • Isekai Quartet - S02E11.mkv (101.8 MiB)
    • Isekai Quartet - S02E12.mkv (202.0 MiB)
File size and Video/Audio Quality is fantastic!!! Thank you so much!!!