[KayRips] Youth With You Season 3 青春有你3 Episode 13 WEB-DL.HEVC.x265 8-Bit AAC ENG Subbed (1080p)

Category:
Date:
2021-04-03 10:45 UTC
Submitter:
Seeders:
1
Information:
Leechers:
0
File size:
5.9 GiB
Completed:
8
Info hash:
662eb0e6156cf8c6a24f5b835b4b4af2ac5e2832
DDL on discord https://discord.gg/whtT7vqfKB **Title :** Youth With You Season 3 / 青春有你3 **Episode :** 13 **Country :** China **Genre :** Friendship, Music, Youth **Duration :** 2 h 47 min 1 sec *(Combination of Part 1, and Part 2)* ``` Video ID : 1 Format : HEVC Format/Info : High Efficiency Video Coding Format profile : Main@L4@Main Codec ID : V_MPEGH/ISO/HEVC Duration : 2 h 47 min Bit rate : 4 839 kb/s Width : 1 920 pixels Height : 1 080 pixels Display aspect ratio : 16:9 Frame rate mode : Constant Frame rate : 24.000 FPS Color space : YUV Chroma subsampling : 4:2:0 Bit depth : 8 bits Bits/(Pixel*Frame) : 0.097 Stream size : 5.64 GiB (96%) Default : Yes Forced : No Audio ID : 2 Format : AAC LC Format/Info : Advanced Audio Codec Low Complexity Codec ID : A_AAC-2 Duration : 2 h 47 min Bit rate : 192 kb/s Channel(s) : 2 channels Channel layout : L R Sampling rate : 44.1 kHz Frame rate : 43.066 FPS (1024 SPF) Compression mode : Lossy Stream size : 227 MiB (4%) Language : Chinese Default : Yes Forced : No Menu 00:00:00.000 : :Part 01 01:34:23.579 : :Part 02 ``` ![alt text](https://i.ibb.co/j3mDm6g/Kay-Rips-Youth-With-You-Idol-Producer-S04-E13-mkv-20210403-182801-186.png)

File list

  • [KayRips] Youth With You - S03E13.mkv (5.9 GiB)