[KayRips] The Penthouse - S02E13 [1080p][WEB-DL x264][Eng-Subs] (weekly)

Category:
Date:
2021-04-03 07:12 UTC
Submitter:
Seeders:
3
Information:
Leechers:
0
File size:
2.1 GiB
Completed:
27
Info hash:
ef9050b2b7b3b7e4a912bae5b53ea9e3312f2e8e
DDL on discord https://discord.gg/whtT7vqfKB **Title :** The Penthouse Season 2 / The Penthouse 2: War in Life (2021) / 펜트하우스2 **Episode :** 13 **Country :** South Korea **Genre :** Suspense, Thriller, Crime, Drama, Family **Duration :** 1 h 13 min 37 sec ``` Video ID : 1 Format : AVC Format/Info : Advanced Video Codec Format profile : Main@L4 Format settings : CABAC / 4 Ref Frames Format settings, CABAC : Yes Format settings, Reference frames : 4 frames Codec ID : V_MPEG4/ISO/AVC Duration : 1 h 13 min Bit rate : 4 000 kb/s Width : 1 920 pixels Height : 1 080 pixels Display aspect ratio : 16:9 Frame rate mode : Variable Frame rate : 29.970 FPS Color space : YUV Chroma subsampling : 4:2:0 Bit depth : 8 bits Scan type : Progressive Bits/(Pixel*Frame) : 0.064 Stream size : 2.04 GiB (97%) Writing library : x264 core 157 Encoding settings : cabac=1 / ref=1 / deblock=1:0:0 / analyse=0x1:0x111 / me=hex / subme=5 / psy=1 / psy_rd=1.00:0.00 / mixed_ref=0 / me_range=16 / chroma_me=1 / trellis=1 / 8x8dct=0 / cqm=0 / deadzone=21,11 / fast_pskip=1 / chroma_qp_offset=0 / threads=4 / lookahead_threads=1 / sliced_threads=0 / nr=0 / decimate=1 / interlaced=0 / bluray_compat=0 / stitchable=1 / constrained_intra=0 / bframes=3 / b_pyramid=2 / b_adapt=1 / b_bias=0 / direct=1 / weightb=1 / open_gop=0 / weightp=2 / keyint=60 / keyint_min=20 / scenecut=40 / intra_refresh=0 / rc_lookahead=40 / rc=cbr / mbtree=1 / bitrate=4000 / ratetol=1.0 / qcomp=0.60 / qpmin=10 / qpmax=50 / qpstep=4 / vbv_maxrate=4000 / vbv_bufsize=8000 / nal_hrd=none / filler=0 / ip_ratio=1.41 / aq=1:1.00 Default : Yes Forced : No Audio ID : 2 Format : AAC LC Format/Info : Advanced Audio Codec Low Complexity Codec ID : A_AAC-2 Duration : 1 h 13 min Bit rate : 128 kb/s Channel(s) : 2 channels Channel layout : L R Sampling rate : 44.1 kHz Frame rate : 43.066 FPS (1024 SPF) Compression mode : Lossy Stream size : 67.4 MiB (3%) Language : Korean Default : Yes Forced : No ``` ![alt text](https://i.ibb.co/F3RcmLh/Kay-Rips-The-Penthouse-S02-E13-mkv-20210403-143226-989.png)

File list

  • [KayRips] The Penthouse - S02E13.mkv (2.1 GiB)