[KayRips] Youth Party 青春有个局 (2021) Episode 6 WEB-DL.HEVC.x265 8-Bit AAC ENG Subbed (1080p)

Category:
Date:
2021-04-02 03:55 UTC
Submitter:
Seeders:
1
Information:
Leechers:
0
File size:
3.6 GiB
Completed:
9
Info hash:
dfec449288436f7c67b1e96a122b1659b77e2ea8
DDL on discord https://discord.gg/whtT7vqfKB **Title :** Youth Party / 青春有个局 **Episode :** 6 **Country :** China **Genre :** Friendship **Duration :** 1 h 33 min 19 sec ``` Video ID : 1 Format : HEVC Format/Info : High Efficiency Video Coding Format profile : Main@L4@Main Codec ID : V_MPEGH/ISO/HEVC Duration : 1 h 33 min Bit rate : 5 381 kb/s Width : 1 920 pixels Height : 1 080 pixels Display aspect ratio : 16:9 Frame rate mode : Constant Frame rate : 24.000 FPS Color space : YUV Chroma subsampling : 4:2:0 Bit depth : 8 bits Bits/(Pixel*Frame) : 0.108 Stream size : 3.51 GiB (97%) Default : Yes Forced : No Audio ID : 2 Format : AAC LC Format/Info : Advanced Audio Codec Low Complexity Codec ID : A_AAC-2 Duration : 1 h 33 min Bit rate : 192 kb/s Channel(s) : 2 channels Channel layout : L R Sampling rate : 44.1 kHz Frame rate : 43.066 FPS (1024 SPF) Compression mode : Lossy Stream size : 127 MiB (3%) Language : Chinese Default : Yes Forced : No ``` ![alt text](https://i.ibb.co/84QBLvH/Kay-Rips-Youth-Party-S01-E06-mkv-20210402-115237-396.png)

File list

  • [KayRips] Youth Party - S01E06.mkv (3.6 GiB)