[KayRips] Youth With You Season 3 青春有你3 Episode 12 WEB-DL.HEVC.x265 8-Bit AAC ENG Subbed (1080p)

Category:
Date:
2021-03-29 16:18 UTC
Submitter:
Seeders:
1
Information:
Leechers:
0
File size:
5.2 GiB
Completed:
5
Info hash:
d6f6614e23200f9a4bfbefad095bb6d0174f036e
DDL on discord https://discord.gg/whtT7vqfKB **Title :** Youth With You Season 3 / 青春有你3 **Episode :** 12 **Country :** China **Genre :** Friendship, Music, Youth **Duration :** 2 h 28 min 28 sec *(Combination of Part 1, and Part 2)* ``` Video ID : 1 Format : HEVC Format/Info : High Efficiency Video Coding Format profile : Main@L4@Main Codec ID : V_MPEGH/ISO/HEVC Duration : 2 h 28 min Bit rate : 4 854 kb/s Width : 1 920 pixels Height : 1 080 pixels Display aspect ratio : 16:9 Frame rate mode : Constant Frame rate : 24.000 FPS Color space : YUV Chroma subsampling : 4:2:0 Bit depth : 8 bits Bits/(Pixel*Frame) : 0.098 Stream size : 5.03 GiB (96%) Default : Yes Forced : No Audio ID : 2 Format : AAC LC Format/Info : Advanced Audio Codec Low Complexity Codec ID : A_AAC-2 Duration : 2 h 28 min Bit rate : 192 kb/s Channel(s) : 2 channels Channel layout : L R Sampling rate : 44.1 kHz Frame rate : 43.066 FPS (1024 SPF) Compression mode : Lossy Stream size : 202 MiB (4%) Language : Chinese Default : Yes Forced : No Menu 00:00:00.000 : :Part 01 01:39:16.243 : :Part 02 ``` ![alt text](https://i.ibb.co/716Cq2Q/Kay-Rips-Youth-With-You-S03-E12-mkv-20210330-001612-113.png)

File list

  • [KayRips] Youth With You - S03E12.mkv (5.2 GiB)