[KayRips] Times (2021) (Season 1) [1080p][WEB-DL HEVC x265 8bit][Eng-Subs] (Batch)

Category:
Date:
2021-03-29 10:21 UTC
Submitter:
Seeders:
2
Information:
Leechers:
0
File size:
23.7 GiB
Completed:
11
Info hash:
61601e4fe359dbfbe627f142b675ac1d23a15ddd
DDL on discord https://discord.gg/whtT7vqfKB **Drama :** Times / 타임즈 **Episodes :** 12 **Country :** South Korea **Genres :** Thriller, Crime, Drama, Fantasy, Political **Aired :** Feb 20, 2021 - Mar 28, 2021 **Aired On :** Saturday, Sunday **Original Network :** OCN **Duration :** 60 min. **Content Rating :** 15+ - Teens 15 or older **Source :** iQiYi Global **Available Subtitle :** English A passionate reporter with exceptional talent, Lee Jin Woo has dedicated his entire career to pursuing nothing but the truth. Committed to telling the whole story, Jin Woo will do whatever it takes to find and report the hard facts. A hard-working man with a nose for news, Jin Woo’s life takes an unexpected turn when a mysterious phone call connects him with Seo Jung In, a woman who claims to be living five years in the future. A hard-nosed reporter with a burning passion for her work, Seo Jung In has a knack for finding the best stories. But sometimes digging deep uncovers some nasty truths. Following a string of leads, Jung In uncovers a dark plot that could shake the very foundations of the country. With the life of her father, South Korea’s President, Seo Ki Tae on the line, Jung In finds herself in a deadly race against time. But she’s not in this race alone. Mysteriously connected by phone to Lee Jin Woo, the two agree to join forces to save the president. Living and working in two completely different times, Jin Woo and Jung In set out on a dangerous quest for the truth. But will they be able to stop the villainous masterminds plotting this heinous crime before it’s too late? -*Viki* *Episode 1 Mediainfo* ``` Video ID : 1 Format : HEVC Format/Info : High Efficiency Video Coding Format profile : Main@L4@Main Codec ID : V_MPEGH/ISO/HEVC Duration : 58 min 43 s Bit rate : 4 451 kb/s Width : 1 920 pixels Height : 816 pixels Display aspect ratio : 2.35:1 Frame rate mode : Constant Frame rate : 24.000 FPS Color space : YUV Chroma subsampling : 4:2:0 Bit depth : 8 bits Bits/(Pixel*Frame) : 0.118 Stream size : 1.83 GiB (96%) Default : Yes Forced : No Audio ID : 2 Format : AAC LC Format/Info : Advanced Audio Codec Low Complexity Codec ID : A_AAC-2 Duration : 58 min 43 s Bit rate : 192 kb/s Channel(s) : 2 channels Channel layout : L R Sampling rate : 44.1 kHz Frame rate : 43.066 FPS (1024 SPF) Compression mode : Lossy Stream size : 79.7 MiB (4%) Default : Yes Forced : No ``` ![alt text](https://i.ibb.co/XD7G3X9/vlcsnap-2021-03-01-16h28m54s179.png) ![alt text](https://i.ibb.co/nLFPqtb/vlcsnap-2021-03-01-16h51m05s750.png) ![alt text](https://i.ibb.co/5RksWq5/vlcsnap-2021-03-01-16h57m02s006.png) ![alt text](https://i.ibb.co/DQWtmyW/vlcsnap-2021-03-05-19h51m41s958.png) ![alt text](https://i.ibb.co/MfqDKRn/vlcsnap-2021-03-08-04h08m32s485.png)

File list

  • Times (2021)
    • [KayRips] Times - S01E01.mkv (1.9 GiB)
    • [KayRips] Times - S01E02.mkv (2.1 GiB)
    • [KayRips] Times - S01E03.mkv (1.9 GiB)
    • [KayRips] Times - S01E04 .mkv (2.0 GiB)
    • [KayRips] Times - S01E05.mkv (2.1 GiB)
    • [KayRips] Times - S01E06.mkv (2.0 GiB)
    • [KayRips] Times - S01E07.mkv (1.9 GiB)
    • [KayRips] Times - S01E08.mkv (1.9 GiB)
    • [KayRips] Times - S01E09.mkv (1.9 GiB)
    • [KayRips] Times - S01E10.mkv (2.0 GiB)
    • [KayRips] Times - S01E11.mkv (2.0 GiB)
    • [KayRips] Times - S01E12.mkv (2.0 GiB)