[KayRips] Times (2021) - S01E12 [1080p][WEB-DL HEVC x265][Eng-Subs]

Category:
Date:
2021-03-29 10:16 UTC
Submitter:
Seeders:
2
Information:
Leechers:
0
File size:
2.0 GiB
Completed:
11
Info hash:
7813c4279bec76cd99c8669bdf538bf8457cbc77
DDL on discord https://discord.gg/whtT7vqfKB **Title :** Times (2021) / 타임즈 (2021) **Episode :** 12 **Country :** South Korea **Genre :** Thriller, Crime, Drama, Fantasy, Political **Duration :** 1 hr 4 min 53 sec ``` Video ID : 1 Format : HEVC Format/Info : High Efficiency Video Coding Format profile : Main@L4@Main Codec ID : V_MPEGH/ISO/HEVC Duration : 1 h 4 min Bit rate : 4 298 kb/s Width : 1 920 pixels Height : 816 pixels Display aspect ratio : 2.35:1 Frame rate mode : Constant Frame rate : 24.000 FPS Color space : YUV Chroma subsampling : 4:2:0 Bit depth : 8 bits Bits/(Pixel*Frame) : 0.114 Stream size : 1.95 GiB (96%) Default : Yes Forced : No Audio ID : 2 Format : AAC LC Format/Info : Advanced Audio Codec Low Complexity Codec ID : A_AAC-2 Duration : 1 h 4 min Bit rate : 192 kb/s Channel(s) : 2 channels Channel layout : L R Sampling rate : 44.1 kHz Frame rate : 43.066 FPS (1024 SPF) Compression mode : Lossy Stream size : 88.0 MiB (4%) Language : Korean Default : Yes Forced : No ``` ![alt text](https://i.ibb.co/z6G5bHF/Kay-Rips-TImes-S01-E12-mkv-20210329-175823-109.png)

File list

  • [KayRips] Times - S01E12.mkv (2.0 GiB)