Darwin's.Game.S01.1080p.Blu-Ray.10-Bit.Dual-Audio.LPCM.x265-iAHD

Category:
Date:
2021-03-29 02:11 UTC
Submitter:
Seeders:
11
Information:
No information.
Leechers:
0
File size:
19.4 GiB
Completed:
424
Info hash:
3409dd2d6c3d6a50147590249803b2d71329f00b
NOTE: I add the “songs lyrics” to both Intro & Credits but keep everything else original, since the subtitles on the Blu-Ray’s didn’t come with the songs lyrics. Video ID : 1 Format : HEVC Format/Info : High Efficiency Video Coding Format profile : Main 10@L5@Main Codec ID : V_MPEGH/ISO/HEVC Duration : 47 min 42 s Bit rate : 4 976 kb/s Width : 1 920 pixels Height : 1 080 pixels Display aspect ratio : 16:9 Frame rate mode : Constant Frame rate : 23.976 (24000/1001) FPS Color space : YUV Chroma subsampling : 4:2:0 Bit depth : 10 bits Bits/(Pixel*Frame) : 0.100 Stream size : 1.66 GiB (52%) Writing library : x265 3.2.1+1-b5c86a64bbbe:[Windows][GCC 9.2.0][64 bit] 10bit Encoding settings : cpuid=1111039 / frame-threads=4 / numa-pools=16 / wpp / no-pmode / no-pme / no-psnr / no-ssim / log-level=2 / input-csp=1 / input-res=1920x1080 / interlace=0 / total-frames=0 / level-idc=0 / high-tier=1 / uhd-bd=0 / ref=6 / no-allow-non-conformance / no-repeat-headers / annexb / no-aud / no-hrd / info / hash=0 / no-temporal-layers / open-gop / min-keyint=24 / keyint=240 / gop-lookahead=0 / bframes=16 / b-adapt=2 / b-pyramid / bframe-bias=0 / rc-lookahead=50 / lookahead-slices=4 / scenecut=40 / radl=0 / no-splice / no-intra-refresh / ctu=32 / min-cu-size=8 / no-rect / no-amp / max-tu-size=32 / tu-inter-depth=1 / tu-intra-depth=3 / limit-tu=0 / rdoq-level=2 / dynamic-rd=0.00 / no-ssim-rd / signhide / tskip / nr-intra=0 / nr-inter=0 / no-constrained-intra / no-strong-intra-smoothing / max-merge=3 / limit-refs=3 / limit-modes / me=3 / subme=3 / merange=57 / temporal-mvp / no-hme / weightp / no-weightb / no-analyze-src-pics / deblock=1:1 / no-sao / no-sao-non-deblock / rd=4 / selective-sao=0 / no-early-skip / rskip / no-fast-intra / tskip-fast / no-cu-lossless / no-b-intra / no-splitrd-skip / rdpenalty=0 / psy-rd=0.80 / psy-rdoq=2.00 / no-rd-refine / no-lossless / cbqpoffs=0 / crqpoffs=0 / rc=crf / crf=16.0 / qcomp=0.60 / qpstep=4 / stats-write=0 / stats-read=0 / ipratio=1.40 / pbratio=1.30 / aq-mode=3 / aq-strength=1.25 / cutree / zone-count=0 / no-strict-cbr / qg-size=32 / no-rc-grain / qpmax=69 / qpmin=0 / no-const-vbv / sar=1 / overscan=0 / videoformat=5 / range=0 / colorprim=1 / transfer=1 / colormatrix=1 / chromaloc=0 / display-window=0 / cll=0,0 / min-luma=0 / max-luma=1023 / log2-max-poc-lsb=8 / vui-timing-info / vui-hrd-info / slices=1 / no-opt-qp-pps / no-opt-ref-list-length-pps / no-multi-pass-opt-rps / scenecut-bias=0.05 / no-opt-cu-delta-qp / no-aq-motion / no-hdr / no-hdr-opt / no-dhdr10-opt / no-idr-recovery-sei / analysis-reuse-level=5 / scale-factor=0 / refine-intra=0 / refine-inter=0 / refine-mv=1 / refine-ctu-distortion=0 / no-limit-sao / ctu-info=0 / no-lowpass-dct / refine-analysis-type=0 / copy-pic=1 / max-ausize-factor=1.0 / no-dynamic-refine / no-single-sei / no-hevc-aq / no-svt / no-field / qp-adaptation-range=1.00 Language : Japanese Default : Yes Forced : No Color range : Limited Color primaries : BT.709 Transfer characteristics : BT.709 Matrix coefficients : BT.709 Audio #1 ID : 2 Format : PCM Format settings : Little / Signed Codec ID : A_PCM/INT/LIT Duration : 47 min 42 s Bit rate mode : Constant Bit rate : 2 304 kb/s Channel(s) : 2 channels Sampling rate : 48.0 kHz Frame rate : 25.000 FPS (1920 SPF) Bit depth : 24 bits Stream size : 786 MiB (24%) Language : English Default : Yes Forced : No Audio #2 ID : 3 Format : PCM Format settings : Little / Signed Codec ID : A_PCM/INT/LIT Duration : 47 min 42 s Bit rate mode : Constant Bit rate : 2 304 kb/s Channel(s) : 2 channels Sampling rate : 48.0 kHz Frame rate : 25.000 FPS (1920 SPF) Bit depth : 24 bits Stream size : 786 MiB (24%) Language : Japanese Default : No Forced : No Text #1 ID : 4 Format : PGS Muxing mode : zlib Codec ID : S_HDMV/PGS Codec ID/Info : Picture based subtitle format used on BDs/HD-DVDs Duration : 46 min 36 s Bit rate : 4 160 b/s Count of elements : 95 Stream size : 1.39 MiB (0%) Title : Signs / Songs Language : English Default : Yes Forced : No Text #2 ID : 5 Format : PGS Muxing mode : zlib Codec ID : S_HDMV/PGS Codec ID/Info : Picture based subtitle format used on BDs/HD-DVDs Duration : 46 min 41 s Bit rate : 34.5 kb/s Count of elements : 985 Stream size : 11.5 MiB (0%) Title : Dialogue Language : English Default : No Forced : No Menu 00:00:00.000 : en:Chapter 01 00:03:49.146 : en:Chapter 02 00:10:13.071 : en:Chapter 03 00:23:13.142 : en:Chapter 04 00:28:06.185 : en:Chapter 05 00:44:35.173 : en:Chapter 06 00:47:35.061 : en:Chapter 07

File list

  • Darwin's.Game.S01.1080p.Blu-Ray.10-Bit.Dual-Audio.LPCM.x265-iAHD
    • Darwin's.Game.S01E01.1080p.Blu-Ray.10-Bit.Dual-Audio.LPCM.x265-iAHD.mkv (3.2 GiB)
    • Darwin's.Game.S01E02.1080p.Blu-Ray.10-Bit.Dual-Audio.LPCM.x265-iAHD.mkv (1.6 GiB)
    • Darwin's.Game.S01E03.1080p.Blu-Ray.10-Bit.Dual-Audio.LPCM.x265-iAHD.mkv (1.7 GiB)
    • Darwin's.Game.S01E04.1080p.Blu-Ray.10-Bit.Dual-Audio.LPCM.x265-iAHD.mkv (1.7 GiB)
    • Darwin's.Game.S01E05.1080p.Blu-Ray.10-Bit.Dual-Audio.LPCM.x265-iAHD.mkv (1.5 GiB)
    • Darwin's.Game.S01E06.1080p.Blu-Ray.10-Bit.Dual-Audio.LPCM.x265-iAHD.mkv (1.5 GiB)
    • Darwin's.Game.S01E07.1080p.Blu-Ray.10-Bit.Dual-Audio.LPCM.x265-iAHD.mkv (1.7 GiB)
    • Darwin's.Game.S01E08.1080p.Blu-Ray.10-Bit.Dual-Audio.LPCM.x265-iAHD.mkv (1.5 GiB)
    • Darwin's.Game.S01E09.1080p.Blu-Ray.10-Bit.Dual-Audio.LPCM.x265-iAHD.mkv (1.9 GiB)
    • Darwin's.Game.S01E10.1080p.Blu-Ray.10-Bit.Dual-Audio.LPCM.x265-iAHD.mkv (1.5 GiB)
    • Darwin's.Game.S01E11.1080p.Blu-Ray.10-Bit.Dual-Audio.LPCM.x265-iAHD.mkv (1.5 GiB)
Thank you. Here is to hoping for Season 2. _BTW Something seems off in your technobabel (could just be me (Subtitles)).._
@iAHQ could you upload deathnote next, it was always my dream to watch it in blu ray.
Thanks@iAHQ. Here are .ass subtitles. A simple restyle (reliable Gandhi Sans) of leafeon’s subtitles (retimed HorribleSubs). Re-added lines that were missing in their Ep3. https://www.mediafire.com/file/3ibk0uxl7bcbv8p/
Thanks!!!! @Kulot99 Good on subs! Can we use this on Moozzi2 and SAIO-RAws or LowPower?
They work with Moozzi2’s release. I haven't tried the other two.
Needs a v2 - e08 has subtitles from the wrong episode after the OP
Here are better subtitles by Medex. They did a nice job with the signs. https://www.mediafire.com/file/uklcb6s90csj2yt/
Episode 8 is busted.