[School Idol] SONGS OF TOKYO - #20 Love Live! Series SP (NHK World VOD 1920x1080 x264 AAC) [1E219E94].mkv

Category:
Date:
2021-03-22 09:59 UTC
Submitter:
Seeders:
0
File size:
2.1 GiB
Completed:
228
Info hash:
4ff3070cc497f1ba5b55b0d2cfc74839515e9a51
on my way galaximp This is ripped from NHK World on Demand page with [best possible quality available](https://cdn.discordapp.com/attachments/697013075215122462/823496849603166238/WindowsTerminal_4Eiggl7Mj5.png), dunno if looks better than the satellite broadcast (Astra 19,2/28,2-Hotbird 13; ~~except the wrong framerate~~) ![](https://cdn.discordapp.com/attachments/697013075215122462/823494966013722654/School_Idol_SONGS_OF_TOKYO_-_20_Love_Live_Series_SP_NHK_World_VOD_1920x1080_x264_AAC_1E219E94.mkv_th.png) ``` General Unique ID : 32014465491509784175367683094286864488 (0x1815C303A510D45988D9C4F10D3E9068) Complete name : [School Idol] SONGS OF TOKYO - #20 Love Live! Series SP (NHK World VOD 1920x1080 x264 AAC) [1E219E94].mkv Format : Matroska Format version : Version 4 File size : 2.06 GiB Duration : 27 min 59 s Overall bit rate : 10.5 Mb/s Encoded date : UTC 2021-03-22 09:51:57 Writing application : mkvmerge v51.0.0 ('I Wish') 64-bit Writing library : libebml v1.4.0 + libmatroska v1.6.2 Cover : Yes Attachments : cover.jpg Video ID : 1 Format : AVC Format/Info : Advanced Video Codec Format profile : Main@L4 Format settings : CABAC / 2 Ref Frames Format settings, CABAC : Yes Format settings, Reference : 2 frames Codec ID : V_MPEG4/ISO/AVC Duration : 27 min 59 s Bit rate mode : Constant Bit rate : 10 000 kb/s Width : 1 920 pixels Height : 1 080 pixels Display aspect ratio : 16:9 Frame rate mode : Constant Frame rate : 30.000 FPS Color space : YUV Chroma subsampling : 4:2:0 Bit depth : 8 bits Scan type : Progressive Bits/(Pixel*Frame) : 0.161 Stream size : 1.95 GiB (95%) Language : English Default : Yes Forced : No Audio ID : 2 Format : AAC LC Format/Info : Advanced Audio Codec Low Complexity Codec ID : A_AAC-2 Duration : 27 min 58 s Bit rate : 509 kb/s Channel(s) : 2 channels Channel layout : L R Sampling rate : 48.0 kHz Frame rate : 46.875 FPS (1024 SPF) Compression mode : Lossy Delay relative to video : -52 ms Stream size : 102 MiB (5%) Language : Japanese Default : Yes Forced : No ```

File list

  • [School Idol] SONGS OF TOKYO - #20 Love Live! Series SP (NHK World VOD 1920x1080 x264 AAC) [1E219E94].mkv (2.1 GiB)