Love Live! Nijigasaki High School Idol Club Shuffle Festival in School - Day 1 (WEBDL 1920x1080 x265 HEVC AAC).mkv

Category:
Date:
2021-03-21 00:01 UTC
Submitter:
Seeders:
26
Information:
Leechers:
0
File size:
1.4 GiB
Completed:
872
Info hash:
74b3a3ad82af672376744bcd04999bf1ef255c0b
![](https://puu.sh/HqZmI/b43892bd4a.jpg) ```General Unique ID : 196323242502482947010836443688402632815 (0x93B27B2CBE307123CA0E773BFFA3406F) Complete name : \Love Live! Nijigasaki High School Idol Club Shuffle Festival in School - Day 1 (WEBDL 1920x1080 x265 HEVC AAC).mkv Format : Matroska Format version : Version 4 File size : 1.41 GiB Duration : 2 h 18 min Overall bit rate : 1 459 kb/s Encoded date : UTC 2021-03-20 23:44:28 Writing application : mkvmerge v55.0.0 ('Waiting For Space') 64-bit Writing library : libebml v1.4.2 + libmatroska v1.6.4 Video ID : 1 Format : HEVC Format/Info : High Efficiency Video Coding Format profile : Main@L4@Main Codec ID : V_MPEGH/ISO/HEVC Duration : 2 h 18 min Bit rate : 1 261 kb/s Width : 1 920 pixels Height : 1 080 pixels Display aspect ratio : 16:9 Frame rate mode : Constant Frame rate : 30.000 FPS Color space : YUV Chroma subsampling : 4:2:0 Bit depth : 8 bits Bits/(Pixel*Frame) : 0.020 Stream size : 1.22 GiB (86%) Title : Video x265 HEVC 1080p Language : Japanese Default : Yes Forced : No Color range : Limited Color primaries : BT.709 Transfer characteristics : BT.709 Matrix coefficients : BT.709 Audio ID : 2 Format : AAC LC Format/Info : Advanced Audio Codec Low Complexity Codec ID : A_AAC-2 Duration : 2 h 18 min Bit rate : 192 kb/s Channel(s) : 2 channels Channel layout : L R Sampling rate : 48.0 kHz Frame rate : 46.875 FPS (1024 SPF) Compression mode : Lossy Stream size : 193 MiB (13%) Title : Audio AAC 2.0 Language : Japanese Default : Yes Forced : No ``` ----------------------------------------------------------------------------------------------- Video descargado desde Bilibili y luego muxeado con MKVToolnix Fuente: https://www.bilibili.com/video/BV1dv411b75Z 4800 yenes por un solo un día sigue siendo demasiado caro para el latino promedio u.u

File list

  • Love Live! Nijigasaki High School Idol Club Shuffle Festival in School - Day 1 (WEBDL 1920x1080 x265 HEVC AAC).mkv (1.4 GiB)
Was refreshing this website all day waiting for someone to post this. Thanks mate
Arigatou gosai fucking masu
Un capa sin heroe
Let's fucking goooooooo.. much thanks.
Nijigasaki Fans going to jail party ?
Day 2 here https://www.bilibili.com/video/BV1764y1D7LQ
High quality rip [here](https://nyaa.si/view/1361102) if you are interested

PogonzaRod (uploader)

User
Thanks for link with high quality @Setsugennoao