Made in Abyss Movies BD.1080p.x264.Dual Audio.Jap.Eng [Rady]

Category:
Date:
2021-02-28 22:26 UTC
Submitter:
Seeders:
2
Information:
No information.
Leechers:
0
File size:
13.5 GiB
Completed:
593
Info hash:
fc1a529125a6a0ced5b9f0426a4cdf51df66f328
Video: [Moozzi2] Dual Audio & Subs: [Artifesto] & [EMBER] Collecting the best available sources around the internet and packing them up in one batch. This is best video quality with Flac Audio so to keep the size compact, special thanks for the guys up here, where i took the videos and audios. If you really like my work support me and leave a comment. General Unique ID : 73634313777256772225995336542826936204 (0x376573F6BF191A1427859E22CC8E378C) Complete name : D:\Utorrent\Made in Abyss Movies BD.1080p.x264.Dual Audio.Jap.Eng [Rady]\Made in Abyss Movie 1 Journey's Dawn BD.1080p.x264.Dual Audio.Jap.Eng [Rady].mkv Format : Matroska Format version : Version 4 File size : 5.38 GiB Duration : 1 h 58 min Overall bit rate mode : Variable Overall bit rate : 6 482 kb/s Movie name : Made in Abyss Movie- 01 Journey's Dawn Encoded date : UTC 2021-02-24 13:58:57 Writing application : mkvmerge v52.0.0 ('Secret For The Mad') 64-bit Writing library : libebml v1.4.1 + libmatroska v1.6.2 Video ID : 1 Format : HEVC Format/Info : High Efficiency Video Coding Format profile : Format Range@L4@High Codec ID : V_MPEGH/ISO/HEVC Duration : 1 h 58 min Bit rate : 5 685 kb/s Width : 1 920 pixels Height : 1 080 pixels Display aspect ratio : 16:9 Frame rate mode : Constant Frame rate : 23.976 (24000/1001) FPS Color space : YUV Chroma subsampling : 4:4:4 Bit depth : 10 bits Bits/(Pixel*Frame) : 0.114 Stream size : 4.72 GiB (88%) Writing library : x265 3.2+5-354901970679:[Windows][GCC 9.2.0][64 bit] 10bit Encoding settings : cpuid=1111039 / frame-threads=5 / numa-pools=32,0 / wpp / no-pmode / no-pme / no-psnr / no-ssim / log-level=2 / input-csp=3 / input-res=1920x1080 / interlace=0 / total-frames=31 / level-idc=0 / high-tier=1 / uhd-bd=0 / ref=4 / no-allow-non-conformance / no-repeat-headers / annexb / no-aud / no-hrd / info / hash=0 / no-temporal-layers / no-open-gop / min-keyint=50 / keyint=360 / gop-lookahead=0 / bframes=8 / b-adapt=2 / b-pyramid / bframe-bias=0 / rc-lookahead=80 / lookahead-slices=4 / scenecut=40 / radl=0 / no-splice / no-intra-refresh / ctu=32 / min-cu-size=8 / no-rect / no-amp / max-tu-size=32 / tu-inter-depth=2 / tu-intra-depth=2 / limit-tu=0 / rdoq-level=2 / dynamic-rd=0.00 / no-ssim-rd / signhide / no-tskip / nr-intra=0 / nr-inter=0 / no-constrained-intra / no-strong-intra-smoothing / max-merge=3 / limit-refs=2 / limit-modes / me=3 / subme=4 / merange=57 / temporal-mvp / no-frame-dup / no-hme / weightp / weightb / no-analyze-src-pics / deblock=0:0 / no-sao / no-sao-non-deblock / rd=5 / selective-sao=0 / no-early-skip / rskip / no-fast-intra / no-tskip-fast / no-cu-lossless / no-b-intra / no-splitrd-skip / rdpenalty=0 / psy-rd=1.50 / psy-rdoq=1.00 / no-rd-refine / no-lossless / cbqpoffs=-2 / crqpoffs=-2 / rc=crf / crf=15.0 / qcomp=0.75 / qpstep=4 / stats-write=0 / stats-read=0 / vbv-maxrate=28000 / vbv-bufsize=35000 / vbv-init=0.9 / crf-max=0.0 / crf-min=0.0 / ipratio=1.40 / pbratio=1.30 / aq-mode=3 / aq-strength=0.80 / no-cutree / zone-count=0 / no-strict-cbr / qg-size=32 / no-rc-grain / qpmax=69 / qpmin=0 / no-const-vbv / sar=0 / overscan=0 / videoformat=5 / range=0 / colorprim=1 / transfer=1 / colormatrix=1 / chromaloc=0 / display-window=0 / cll=0,0 / min-luma=0 / max-luma=1023 / log2-max-poc-lsb=8 / vui-timing-info / vui-hrd-info / slices=1 / no-opt-qp-pps / no-opt-ref-list-length-pps / no-multi-pass-opt-rps / scenecut-bias=0.05 / no-opt-cu-delta-qp / no-aq-motion / no-hdr / no-hdr-opt / no-dhdr10-opt / no-idr-recovery-sei / analysis-reuse-level=5 / scale-factor=0 / refine-intra=0 / refine-inter=0 / refine-mv=1 / refine-ctu-distortion=0 / no-limit-sao / ctu-info=0 / no-lowpass-dct / refine-analysis-type=0 / copy-pic=1 / max-ausize-factor=1.0 / no-dynamic-refine / no-single-sei / no-hevc-aq / no-svt / no-field / qp-adaptation-range=1.00 Language : Japanese Default : Yes Forced : No Color range : Limited Color primaries : BT.709 Transfer characteristics : BT.709 Matrix coefficients : BT.709 Audio #1 ID : 3 Format : AAC LC Format/Info : Advanced Audio Codec Low Complexity Codec ID : A_AAC-2 Duration : 1 h 58 min Bit rate : 159 kb/s Channel(s) : 2 channels Channel layout : L R Sampling rate : 48.0 kHz Frame rate : 46.875 FPS (1024 SPF) Compression mode : Lossy Delay relative to video : 19 ms Stream size : 135 MiB (2%) Language : English Default : Yes Forced : No Audio #2 ID : 4 Format : FLAC Format/Info : Free Lossless Audio Codec Codec ID : A_FLAC Duration : 1 h 58 min Bit rate mode : Variable Bit rate : 635 kb/s Channel(s) : 2 channels Channel layout : L R Sampling rate : 48.0 kHz Frame rate : 11.719 FPS (4096 SPF) Bit depth : 16 bits Compression mode : Lossless Stream size : 540 MiB (10%) Title : FLAC 2ch Writing library : libFLAC 1.3.2 (UTC 2017-01-01) Language : Japanese Default : No Forced : No Text ID : 2 Format : ASS Codec ID : S_TEXT/ASS Codec ID/Info : Advanced Sub Station Alpha Duration : 1 h 57 min Bit rate : 125 b/s Count of elements : 1831 Compression mode : Lossless Stream size : 109 KiB (0%) Language : English Default : Yes Forced : No

File list

  • Made in Abyss Movies BD.1080p.x264.Dual Audio.Jap.Eng [Rady]
    • Made In Abyss Movie 3 -Dawn of the Deep Soul BD.1080p.x264.Dual Audio.Jap.Eng [Rady].mkv (3.2 GiB)
    • Made in Abyss Movie 1 Journey's Dawn BD.1080p.x264.Dual Audio.Jap.Eng [Rady].mkv (5.4 GiB)
    • Made in Abyss Movie 2 Wandering Twilight BD.1080p.x264.Dual Audio.Jap.Eng [Rady].mkv (4.9 GiB)
These are not h264. These are actually h265 (HEVC) format.