[KayRips] Replay: The Moment When It Starts Again 리플레이: 다시 시작되는 순간 Episode 10 (2021) WEB-DL.x264 AAC ENG Subbed (1080p)

Category:
Date:
2021-02-28 12:24 UTC
Submitter:
Seeders:
1
Information:
Leechers:
0
File size:
196.8 MiB
Completed:
27
Info hash:
320a7fc16ce400af97dc2e8ad6228254056b3950
DDL on discord https://discord.gg/whtT7vqfKB **Title :** Replay: The Moment When It Starts Again / 리플레이: 다시 시작되는 순간 **Episode :** 10 **Country :** South Korea **Genre :** Music, Romance, Life, School, Youth, Drama **Duration :** 17 min 13 second ``` Video ID : 2 Format : AVC Format/Info : Advanced Video Codec Format profile : High@L4 Format settings : CABAC / 4 Ref Frames Format settings, CABAC : Yes Format settings, Reference frames : 4 frames Codec ID : V_MPEG4/ISO/AVC Duration : 17 min 13 s Bit rate : 1 412 kb/s Width : 1 920 pixels Height : 1 080 pixels Display aspect ratio : 16:9 Frame rate mode : Constant Frame rate : 24.000 FPS Color space : YUV Chroma subsampling : 4:2:0 Bit depth : 8 bits Scan type : Progressive Bits/(Pixel*Frame) : 0.028 Stream size : 173 MiB (88%) Writing library : x264 core 148 Encoding settings : cabac=1 / ref=3 / deblock=1:0:0 / analyse=0x3:0x113 / me=umh / subme=10 / psy=1 / psy_rd=1.00:0.00 / mixed_ref=1 / me_range=24 / chroma_me=1 / trellis=2 / 8x8dct=1 / cqm=0 / deadzone=21,11 / fast_pskip=1 / chroma_qp_offset=-2 / threads=12 / lookahead_threads=1 / sliced_threads=0 / nr=0 / decimate=1 / interlaced=0 / bluray_compat=0 / constrained_intra=0 / bframes=3 / b_pyramid=2 / b_adapt=2 / b_bias=0 / direct=1 / weightb=1 / open_gop=0 / weightp=2 / keyint=120 / keyint_min=61 / scenecut=0 / intra_refresh=0 / rc_lookahead=60 / rc=2pass / mbtree=1 / bitrate=1412 / ratetol=1.0 / qcomp=0.60 / qpmin=0 / qpmax=69 / qpstep=4 / cplxblur=20.0 / qblur=0.5 / vbv_maxrate=3900 / vbv_bufsize=4236 / nal_hrd=none / filler=0 / ip_ratio=1.40 / aq=1:1.00 Default : Yes Forced : No Audio ID : 1 Format : AAC LC Format/Info : Advanced Audio Codec Low Complexity Codec ID : A_AAC-2 Duration : 17 min 13 s Bit rate : 192 kb/s Channel(s) : 2 channels Channel layout : L R Sampling rate : 48.0 kHz Frame rate : 46.875 FPS (1024 SPF) Compression mode : Lossy Stream size : 23.6 MiB (12%) Language : English Default : Yes Forced : No ``` ![alt text](https://i.ibb.co/JKRqTK3/vlcsnap-2021-02-28-20h13m38s261.png)

File list

  • [KayRips] Replay The Moment When It Starts Again - S01E10.mkv (196.8 MiB)