[KayRips] Youth With You Season 3 青春有你3 Episode 4 WEB-DL.HEVC.x265 8-Bit AAC ENG Subbed (1080p)

Category:
Date:
2021-02-28 07:08 UTC
Submitter:
Seeders:
1
Information:
Leechers:
0
File size:
6.5 GiB
Completed:
10
Info hash:
93aeb3e950e54fd7c40b66abcc99c6e0085ef42e
DDL on discord https://discord.gg/whtT7vqfKB **Title :** Youth With You Season 3 / 青春有你3 **Episode :** 4 **Country :** China **Genre :** Friendship, Music, Youth **Duration :** 3 h 6 min 59 sec *(Combination of Part 1, Part 2, and Part 3)* P/s : Starting from this episode onwards, the file size will be a lot bigger than usual following up with much better quality. ``` Video ID : 2 Format : HEVC Format/Info : High Efficiency Video Coding Format profile : Main@L4@Main Codec ID : V_MPEGH/ISO/HEVC Duration : 3 h 6 min Bit rate : 4 749 kb/s Width : 1 920 pixels Height : 1 080 pixels Display aspect ratio : 16:9 Frame rate mode : Constant Frame rate : 24.000 FPS Color space : YUV Chroma subsampling : 4:2:0 Bit depth : 8 bits Bits/(Pixel*Frame) : 0.095 Stream size : 6.20 GiB (96%) Default : Yes Forced : No Audio ID : 3 Format : AAC LC Format/Info : Advanced Audio Codec Low Complexity Codec ID : A_AAC-2 Duration : 3 h 6 min Bit rate : 192 kb/s Channel(s) : 2 channels Channel layout : L R Sampling rate : 44.1 kHz Frame rate : 43.066 FPS (1024 SPF) Compression mode : Lossy Stream size : 254 MiB (4%) Default : Yes Forced : No ``` ![alt text](https://i.ibb.co/QYss2Vt/vlcsnap-2021-02-28-15h04m13s552.png)

File list

  • [KayRips] Youth With You - S03E04.mkv (6.5 GiB)