[MagicStar] ESPY 1974 [WEBDL] [1080p] [AMZN]

Category:
Date:
2021-02-27 11:50 UTC
Submitter:
Seeders:
3
Information:
AKA: ESP-Y
Leechers:
1
File size:
9.3 GiB
Completed:
341
Info hash:
65746d64a41c41e9b24c479f23b0ee93f550d21f
HD 1080p from Prime Video. ![alt text](https://i.ibb.co/J7W3JRD/9134r33ffd-L.jpg) ![alt text](https://i.ibb.co/rwz6PVh/ESPY-1974-1080p-AMZN-WEB-DL-DDP2-0-H-264-Magic-Star-mkv.jpg) ``` General Unique ID : 227464377005783715367642795478937868137 (0xAB200BA59AE4FF2AF1A6A58F118D9769) Complete name : ESPY.1974.1080p.AMZN.WEB-DL.DDP2.0.H.264-MagicStar.mkv Format : Matroska Format version : Version 4 File size : 9.28 GiB Duration : 1 h 34 min Overall bit rate mode : Variable Overall bit rate : 14.1 Mb/s Encoded date : UTC 2021-02-27 11:39:21 Writing application : mkvmerge v50.0.0 ('Awakenings') 64-bit Writing library : libebml v1.4.0 + libmatroska v1.6.2 Cover : Yes Attachments : cover.png Video ID : 1 Format : AVC Format/Info : Advanced Video Codec Format profile : High@L4 Format settings : CABAC / 4 Ref Frames Format settings, CABAC : Yes Format settings, Reference fra : 4 frames Codec ID : V_MPEG4/ISO/AVC Duration : 1 h 34 min Bit rate mode : Variable Bit rate : 13.8 Mb/s Maximum bit rate : 15.0 Mb/s Width : 1 920 pixels Height : 1 080 pixels Display aspect ratio : 16:9 Frame rate mode : Constant Frame rate : 23.976 (24000/1001) FPS Color space : YUV Chroma subsampling : 4:2:0 Bit depth : 8 bits Scan type : Progressive Bits/(Pixel*Frame) : 0.279 Stream size : 9.13 GiB (98%) Writing library : x264 core 148 r2623 d5b2374 Encoding settings : cabac=1 / ref=4 / deblock=1:-1:-1 / analyse=0x3:0x133 / me=umh / subme=9 / psy=1 / psy_rd=1.00:0.15 / mixed_ref=1 / me_range=24 / chroma_me=1 / trellis=2 / 8x8dct=1 / cqm=0 / deadzone=21,11 / fast_pskip=1 / chroma_qp_offset=-3 / threads=34 / lookahead_threads=5 / sliced_threads=0 / nr=150 / decimate=1 / interlaced=0 / bluray_compat=0 / constrained_intra=0 / bframes=8 / b_pyramid=2 / b_adapt=2 / b_bias=0 / direct=3 / weightb=1 / open_gop=0 / weightp=2 / keyint=120 / keyint_min=61 / scenecut=0 / intra_refresh=0 / rc_lookahead=120 / rc=crf / mbtree=1 / crf=18.0 / qcomp=0.60 / qpmin=0 / qpmax=69 / qpstep=4 / vbv_maxrate=15000 / vbv_bufsize=31250 / crf_max=0.0 / nal_hrd=vbr / filler=0 / ip_ratio=1.40 / aq=3:1.00 Default : Yes Forced : No Color range : Limited Color primaries : BT.709 Transfer characteristics : BT.709 Matrix coefficients : BT.709 Audio ID : 2 Format : E-AC-3 Format/Info : Enhanced AC-3 Commercial name : Dolby Digital Plus Codec ID : A_EAC3 Duration : 1 h 34 min Bit rate mode : Constant Bit rate : 224 kb/s Channel(s) : 2 channels Channel layout : L R Sampling rate : 48.0 kHz Frame rate : 31.250 FPS (1536 SPF) Compression mode : Lossy Stream size : 151 MiB (2%) Language : Japanese Service kind : Complete Main Default : Yes Forced : No ```

File list

Thanks again for all you do for the Jdrama community. Do you know if you going to complete any the drama you started last year or can somebody upload the rest of the drama below: Keishichou Sousa Ichikachou 2020 Ep 05 thru Ep 16 Tokusou 9 Season3 Ep 05 thru Ep 10
I spy a certain Kaizou Ningen.